  0
SECTION
  2
HEADER
  9
$ACADVER
  1
AC1015
  9
$ACADMAINTVER
 70
     6
  9
$DWGCODEPAGE
  3
ANSI_1252
  9
$INSBASE
 10
0.0
 20
0.0
 30
0.0
  9
$EXTMIN
 10
0.0
 20
0.0
 30
0.0
  9
$EXTMAX
 10
1600.0
 20
600.0
 30
0.0
  9
$LIMMIN
 10
0.0
 20
0.0
  9
$LIMMAX
 10
1600.0
 20
600.0
  9
$ORTHOMODE
 70
     0
  9
$REGENMODE
 70
     1
  9
$FILLMODE
 70
     1
  9
$QTEXTMODE
 70
     0
  9
$MIRRTEXT
 70
     1
  9
$LTSCALE
 40
1.0
  9
$ATTMODE
 70
     1
  9
$TEXTSIZE
 40
2.8222222222
  9
$TRACEWID
 40
1.0
  9
$TEXTSTYLE
  7
Standard
  9
$CLAYER
  8
0
  9
$CELTYPE
  6
ByLayer
  9
$CECOLOR
 62
   256
  9
$CELTSCALE
 40
1.0
  9
$DISPSILH
 70
     0
  9
$DIMSCALE
 40
1.0
  9
$DIMASZ
 40
2.6458333333
  9
$DIMEXO
 40
1.0
  9
$DIMDLI
 40
3.75
  9
$DIMRND
 40
0.0
  9
$DIMDLE
 40
0.0
  9
$DIMEXE
 40
1.0
  9
$DIMTP
 40
0.0
  9
$DIMTM
 40
0.0
  9
$DIMTXT
 40
2.8222222222
  9
$DIMCEN
 40
2.5
  9
$DIMTSZ
 40
0.0
  9
$DIMTOL
 70
     0
  9
$DIMLIM
 70
     0
  9
$DIMTIH
 70
     1
  9
$DIMTOH
 70
     1
  9
$DIMSE1
 70
     0
  9
$DIMSE2
 70
     0
  9
$DIMTAD
 70
     1
  9
$DIMZIN
 70
     0
  9
$DIMBLK
  1

  9
$DIMASO
 70
     1
  9
$DIMSHO
 70
     1
  9
$DIMPOST
  1

  9
$DIMAPOST
  1

  9
$DIMALT
 70
     0
  9
$DIMALTD
 70
     3
  9
$DIMALTF
 40
0.0393700787
  9
$DIMLFAC
 40
1.0
  9
$DIMTOFL
 70
     1
  9
$DIMTVP
 40
0.0
  9
$DIMTIX
 70
     0
  9
$DIMSOXD
 70
     0
  9
$DIMSAH
 70
     0
  9
$DIMBLK1
  1

  9
$DIMBLK2
  1

  9
$DIMSTYLE
  2
ISO-25
  9
$DIMCLRD
 70
     0
  9
$DIMCLRE
 70
     0
  9
$DIMCLRT
 70
     0
  9
$DIMTFAC
 40
1.0
  9
$DIMGAP
 40
1.524
  9
$DIMJUST
 70
     0
  9
$DIMSD1
 70
     0
  9
$DIMSD2
 70
     0
  9
$DIMTOLJ
 70
     0
  9
$DIMTZIN
 70
     0
  9
$DIMALTZ
 70
     0
  9
$DIMALTTZ
 70
     0
  9
$DIMUPT
 70
     0
  9
$DIMDEC
 70
     2
  9
$DIMTDEC
 70
     2
  9
$DIMALTU
 70
     2
  9
$DIMALTTD
 70
     3
  9
$DIMTXSTY
  7
Standard
  9
$DIMAUNIT
 70
     0
  9
$DIMADEC
 70
     2
  9
$DIMALTRND
 40
0.0
  9
$DIMAZIN
 70
     0
  9
$DIMDSEP
 70
    44
  9
$DIMATFIT
 70
     3
  9
$DIMFRAC
 70
     0
  9
$DIMLDRBLK
  1

  9
$DIMLUNIT
 70
     2
  9
$DIMLWD
 70
    -2
  9
$DIMLWE
 70
    -2
  9
$DIMTMOVE
 70
     0
  9
$LUNITS
 70
     2
  9
$LUPREC
 70
     2
  9
$SKETCHINC
 40
1.0
  9
$FILLETRAD
 40
10.0
  9
$AUNITS
 70
     0
  9
$AUPREC
 70
     2
  9
$MENU
  1
.
  9
$ELEVATION
 40
0.0
  9
$PELEVATION
 40
0.0
  9
$THICKNESS
 40
0.0
  9
$LIMCHECK
 70
     0
  9
$CHAMFERA
 40
0.0
  9
$CHAMFERB
 40
0.0
  9
$CHAMFERC
 40
0.0
  9
$CHAMFERD
 40
0.0
  9
$SKPOLY
 70
     0
  9
$TDCREATE
 40
2459236.681767812
  9
$TDUCREATE
 40
2459236.890101146
  9
$TDUPDATE
 40
2459236.681771065
  9
$TDUUPDATE
 40
2459236.890104398
  9
$TDINDWG
 40
0.0000000116
  9
$TDUSRTIMER
 40
0.0000000116
  9
$USRTIMER
 70
     1
  9
$ANGBASE
 50
0.0
  9
$ANGDIR
 70
     0
  9
$PDMODE
 70
     0
  9
$PDSIZE
 40
-1.0
  9
$PLINEWID
 40
0.0
  9
$SPLFRAME
 70
     0
  9
$SPLINETYPE
 70
     6
  9
$SPLINESEGS
 70
     8
  9
$HANDSEED
  5
296
  9
$SURFTAB1
 70
     6
  9
$SURFTAB2
 70
     6
  9
$SURFTYPE
 70
     6
  9
$SURFU
 70
     6
  9
$SURFV
 70
     6
  9
$UCSBASE
  2

  9
$UCSNAME
  2

  9
$UCSORG
 10
0.0
 20
0.0
 30
0.0
  9
$UCSXDIR
 10
1.0
 20
0.0
 30
0.0
  9
$UCSYDIR
 10
0.0
 20
1.0
 30
0.0
  9
$UCSORTHOREF
  2

  9
$UCSORTHOVIEW
 70
     0
  9
$UCSORGTOP
 10
0.0
 20
0.0
 30
0.0
  9
$UCSORGBOTTOM
 10
0.0
 20
0.0
 30
0.0
  9
$UCSORGLEFT
 10
0.0
 20
0.0
 30
0.0
  9
$UCSORGRIGHT
 10
0.0
 20
0.0
 30
0.0
  9
$UCSORGFRONT
 10
0.0
 20
0.0
 30
0.0
  9
$UCSORGBACK
 10
0.0
 20
0.0
 30
0.0
  9
$PUCSBASE
  2

  9
$PUCSNAME
  2

  9
$PUCSORG
 10
0.0
 20
0.0
 30
0.0
  9
$PUCSXDIR
 10
1.0
 20
0.0
 30
0.0
  9
$PUCSYDIR
 10
0.0
 20
1.0
 30
0.0
  9
$PUCSORTHOREF
  2

  9
$PUCSORTHOVIEW
 70
     0
  9
$PUCSORGTOP
 10
0.0
 20
0.0
 30
0.0
  9
$PUCSORGBOTTOM
 10
0.0
 20
0.0
 30
0.0
  9
$PUCSORGLEFT
 10
0.0
 20
0.0
 30
0.0
  9
$PUCSORGRIGHT
 10
0.0
 20
0.0
 30
0.0
  9
$PUCSORGFRONT
 10
0.0
 20
0.0
 30
0.0
  9
$PUCSORGBACK
 10
0.0
 20
0.0
 30
0.0
  9
$USERI1
 70
     0
  9
$USERI2
 70
     0
  9
$USERI3
 70
     0
  9
$USERI4
 70
     0
  9
$USERI5
 70
     0
  9
$USERR1
 40
0.0
  9
$USERR2
 40
0.0
  9
$USERR3
 40
0.0
  9
$USERR4
 40
0.0
  9
$USERR5
 40
0.0
  9
$WORLDVIEW
 70
     1
  9
$SHADEDGE
 70
     3
  9
$SHADEDIF
 70
    70
  9
$TILEMODE
 70
     1
  9
$MAXACTVP
 70
    64
  9
$PINSBASE
 10
0.0
 20
0.0
 30
0.0
  9
$PLIMCHECK
 70
     0
  9
$PEXTMIN
 10
1.0000000000E+20
 20
1.0000000000E+20
 30
1.0000000000E+20
  9
$PEXTMAX
 10
-1.0000000000E+20
 20
-1.0000000000E+20
 30
-1.0000000000E+20
  9
$PLIMMIN
 10
0.0
 20
0.0
  9
$PLIMMAX
 10
420.0
 20
297.0
  9
$UNITMODE
 70
     0
  9
$VISRETAIN
 70
     1
  9
$PLINEGEN
 70
     0
  9
$PSLTSCALE
 70
     1
  9
$TREEDEPTH
 70
  3020
  9
$CMLSTYLE
  2
Standard
  9
$CMLJUST
 70
     0
  9
$CMLSCALE
 40
20.0
  9
$PROXYGRAPHICS
 70
     1
  9
$MEASUREMENT
 70
     1
  9
$CELWEIGHT
370
    -1
  9
$ENDCAPS
280
     0
  9
$JOINSTYLE
280
     0
  9
$LWDISPLAY
290
     1
  9
$INSUNITS
 70
     4
  9
$HYPERLINKBASE
  1

  9
$STYLESHEET
  1

  9
$XEDIT
290
     1
  9
$CEPSNTYPE
380
     0
  9
$PSTYLEMODE
290
     1
  9
$FINGERPRINTGUID
  2
{480A996C-A5CB-4ACC-8DF0-E3DAE60912C4}
  9
$VERSIONGUID
  2
{FAEB1C32-E019-11D5-929B-00C0DF256EC4}
  9
$EXTNAMES
290
     1
  9
$PSVPSCALE
 40
0.0
  9
$OLESTARTUP
290
     0
  0
ENDSEC
  0
SECTION
  2
CLASSES
  0
CLASS
  1
ACDBDICTIONARYWDFLT
  2
AcDbDictionaryWithDefault
  3
ObjectDBX Classes
 90
        0
280
     0
281
     0
  0
CLASS
  1
VISUALSTYLE
  2
AcDbVisualStyle
  3
ObjectDBX Classes
 90
     4095
280
     0
281
     0
  0
CLASS
  1
MATERIAL
  2
AcDbMaterial
  3
ObjectDBX Classes
 90
     1153
280
     0
281
     0
  0
CLASS
  1
SCALE
  2
AcDbScale
  3
ObjectDBX Classes
 90
     1153
280
     0
281
     0
  0
CLASS
  1
TABLESTYLE
  2
AcDbTableStyle
  3
ObjectDBX Classes
 90
     4095
280
     0
281
     0
  0
CLASS
  1
MLEADERSTYLE
  2
AcDbMLeaderStyle
  3
ACDB_MLEADERSTYLE_CLASS
 90
     4095
280
     0
281
     0
  0
CLASS
  1
SUN
  2
AcDbSun
  3
SCENEOE
 90
     1153
280
     0
281
     0
  0
CLASS
  1
ACDBPLACEHOLDER
  2
AcDbPlaceHolder
  3
ObjectDBX Classes
 90
        0
280
     0
281
     0
  0
CLASS
  1
LAYOUT
  2
AcDbLayout
  3
ObjectDBX Classes
 90
        0
280
     0
281
     0
  0
ENDSEC
  0
SECTION
  2
TABLES
  0
TABLE
  2
VPORT
  5
8
330
0
100
AcDbSymbolTable
 70
     1
  0
VPORT
  5
29
330
8
100
AcDbSymbolTableRecord
100
AcDbViewportTableRecord
  2
*Active
 70
     0
 10
0.0
 20
0.0
 11
1.0
 21
1.0
 12
800.0
 22
300.0
 13
0.0
 23
0.0
 14
10.0
 24
10.0
 15
10.0
 25
10.0
 16
0.0
 26
0.0
 36
1.0
 17
0.0
 27
0.0
 37
0.0
 40
600.0
 41
2.6666666667
 42
50.0
 43
0.0
 44
0.0
 50
0.0
 51
0.0
 71
     0
 72
  2000
 73
     1
 74
     3
 75
     0
 76
     0
 77
     0
 78
     0
281
     0
 65
     1
110
0.0
120
0.0
130
0.0
111
1.0
121
0.0
131
0.0
112
0.0
122
1.0
132
0.0
 79
     0
146
0.0
  0
ENDTAB
  0
TABLE
  2
LTYPE
  5
5
330
0
100
AcDbSymbolTable
 70
     6
  0
LTYPE
  5
14
330
5
100
AcDbSymbolTableRecord
100
AcDbLinetypeTableRecord
  2
ByBlock
 70
     0
  3

 72
    65
 73
     0
 40
0.0
  0
LTYPE
  5
15
330
5
100
AcDbSymbolTableRecord
100
AcDbLinetypeTableRecord
  2
ByLayer
 70
     0
  3

 72
    65
 73
     0
 40
0.0
  0
LTYPE
  5
16
330
5
100
AcDbSymbolTableRecord
100
AcDbLinetypeTableRecord
  2
Continuous
 70
     0
  3
Solid line
 72
    65
 73
     0
 40
0.0
  0
LTYPE
  5
6E
330
5
100
AcDbSymbolTableRecord
100
AcDbLinetypeTableRecord
  2
HIDDEN
 70
     0
  3
Hidden __ __ __ __ __ __ __ __ __ __ __ __ __ __
 72
    65
 73
     2
 40
1.905
 49
1.27
 74
     0
 49
-0.635
 74
     0
  0
LTYPE
  5
6F
330
5
100
AcDbSymbolTableRecord
100
AcDbLinetypeTableRecord
  2
PHANTOM
 70
     0
  3
Phantom ______  __  __  ______  __  __  ______
 72
    65
 73
     6
 40
12.7
 49
6.35
 74
     0
 49
-1.27
 74
     0
 49
1.27
 74
     0
 49
-1.27
 74
     0
 49
1.27
 74
     0
 49
-1.27
 74
     0
  0
LTYPE
  5
70
330
5
100
AcDbSymbolTableRecord
100
AcDbLinetypeTableRecord
  2
CENTER
 70
     0
  3
Center ____ _ ____ _ ____ _ ____ _ ____ _ ____
 72
    65
 73
     4
 40
10.16
 49
6.35
 74
     0
 49
-1.27
 74
     0
 49
1.27
 74
     0
 49
-1.27
 74
     0
  0
LTYPE
  5
71
330
5
100
AcDbSymbolTableRecord
100
AcDbLinetypeTableRecord
  2
CENTERX2
 70
     0
  3
Center (2x) ________  __  ________  __  _____
 72
    65
 73
     4
 40
20.32
 49
12.7
 74
     0
 49
-2.54
 74
     0
 49
2.54
 74
     0
 49
-2.54
 74
     0
  0
LTYPE
  5
72
330
5
100
AcDbSymbolTableRecord
100
AcDbLinetypeTableRecord
  2
DOT2
 70
     0
  3
Dot (.5x) ........................................
 72
    65
 73
     2
 40
0.635
 49
0.0
 74
     0
 49
-0.635
 74
     0
  0
ENDTAB
  0
TABLE
  2
LAYER
  5
2
330
0
100
AcDbSymbolTable
 70
     4
  0
LAYER
  5
10
330
2
100
AcDbSymbolTableRecord
100
AcDbLayerTableRecord
  2
0
 70
     0
 62
     7
  6
Continuous
370
    -3
390
F
  0
LAYER
  5
73
330
2
100
AcDbSymbolTableRecord
100
AcDbLayerTableRecord
  2
SLD-0
 70
     0
 62
   179
  6
Continuous
370
    -3
390
F
  0
LAYER
  5
74
330
2
100
AcDbSymbolTableRecord
100
AcDbLayerTableRecord
  2
ZEICHENBLATT
 70
     0
 62
   179
  6
Continuous
370
    -3
390
F
  0
LAYER
  5
75
330
2
100
AcDbSymbolTableRecord
100
AcDbLayerTableRecord
  2
TITLE_BLOCK_LAYER
 70
     0
 62
     7
  6
Continuous
370
    35
390
F
  0
ENDTAB
  0
TABLE
  2
STYLE
  5
3
330
0
100
AcDbSymbolTable
 70
     3
  0
STYLE
  5
11
330
3
100
AcDbSymbolTableRecord
100
AcDbTextStyleTableRecord
  2
Standard
 70
     0
 40
0.0
 41
1.0
 50
0.0
 71
     0
 42
2.8222222222
  3
txt
  4

  0
STYLE
  5
96
330
3
100
AcDbSymbolTableRecord
100
AcDbTextStyleTableRecord
  2
SLDTEXTSTYLE0
 70
     0
 40
0.0
 41
0.75
 50
0.0
 71
     0
 42
2.8222222222
  3
TXT
  4

  0
STYLE
  5
1D7
330
3
100
AcDbSymbolTableRecord
100
AcDbTextStyleTableRecord
  2
SLDTEXTSTYLE1
 70
     0
 40
0.0
 41
0.6875
 50
0.0
 71
     0
 42
2.8222222222
  3
TXT
  4

  0
ENDTAB
  0
TABLE
  2
VIEW
  5
6
330
0
100
AcDbSymbolTable
 70
     0
  0
ENDTAB
  0
TABLE
  2
UCS
  5
7
330
0
100
AcDbSymbolTable
 70
     0
  0
ENDTAB
  0
TABLE
  2
APPID
  5
9
330
0
100
AcDbSymbolTable
 70
     1
  0
APPID
  5
12
330
9
100
AcDbSymbolTableRecord
100
AcDbRegAppTableRecord
  2
ACAD
 70
     0
  0
ENDTAB
  0
TABLE
  2
DIMSTYLE
  5
A
330
0
100
AcDbSymbolTable
 70
     5
100
AcDbDimStyleTable
  0
DIMSTYLE
105
27
330
A
100
AcDbSymbolTableRecord
100
AcDbDimStyleTableRecord
  2
ISO-25
 70
     0
 41
2.5
 42
0.625
 43
3.75
 44
1.25
 73
     0
 74
     0
 77
     1
 78
     8
140
2.5
141
2.5
143
0.0393700787
147
0.625
171
     3
172
     1
178
     0
271
     2
272
     2
274
     3
278
    44
283
     0
284
     8
340
11
  0
DIMSTYLE
105
97
102
{ACAD_REACTORS
330
95
330
A8
330
B9
330
CA
330
DB
330
ED
330
FF
330
111
330
123
330
135
330
147
330
159
330
17D
330
18E
330
1A0
102
}
330
A
100
AcDbSymbolTableRecord
100
AcDbDimStyleTableRecord
  2
SLDDIMSTYLE0
 70
     0
 41
2.6458333333
 44
0.0
 45
0.000000001
 73
     0
 74
     0
 77
     1
 78
    12
 79
     3
140
6.35
143
0.0393700787
147
1.5875
148
0.000000001
170
     1
173
     1
178
     0
271
     2
272
     2
276
     2
284
    12
340
96
  0
DIMSTYLE
105
16C
102
{ACAD_REACTORS
330
16B
102
}
330
A
100
AcDbSymbolTableRecord
100
AcDbDimStyleTableRecord
  2
SLDDIMSTYLE1
 70
     0
 41
2.6458333333
 44
0.0
 45
0.000000001
 73
     0
 74
     0
 77
     1
 78
    12
 79
     3
140
5.2916666667
143
0.0393700787
147
1.3229166667
148
0.000000001
170
     1
173
     1
178
     0
271
     2
272
     2
276
     2
284
    12
340
96
  0
DIMSTYLE
105
1B2
102
{ACAD_REACTORS
330
1B1
102
}
330
A
100
AcDbSymbolTableRecord
100
AcDbDimStyleTableRecord
  2
SLDDIMSTYLE2
 70
     0
 41
2.6458333333
 44
0.0
 45
0.000000001
 73
     0
 74
     0
 77
     1
 78
     4
 79
     1
140
6.35
143
0.0393700787
147
1.5875
148
0.000000001
170
     1
172
     1
173
     1
178
     0
271
     2
272
     2
276
     2
284
    12
289
     0
340
96
  0
DIMSTYLE
105
1C6
102
{ACAD_REACTORS
330
1C5
102
}
330
A
100
AcDbSymbolTableRecord
100
AcDbDimStyleTableRecord
  2
SLDDIMSTYLE3
 70
     0
 41
2.6458333333
 44
0.0
 45
0.000000001
 78
    12
 79
     3
140
5.2916666667
141
0.0
143
0.0393700787
147
1.3229166667
148
0.000000001
170
     1
172
     1
173
     1
178
     0
271
     2
272
     2
276
     2
284
    12
340
96
341
1C7
343
1C7
  0
ENDTAB
  0
TABLE
  2
BLOCK_RECORD
  5
1
330
0
100
AcDbSymbolTable
 70
    35
  0
BLOCK_RECORD
  5
1F
330
1
100
AcDbSymbolTableRecord
100
AcDbBlockTableRecord
  2
*Model_Space
340
22
  0
BLOCK_RECORD
  5
1B
330
1
100
AcDbSymbolTableRecord
100
AcDbBlockTableRecord
  2
*Paper_Space
340
1E
  0
BLOCK_RECORD
  5
23
330
1
100
AcDbSymbolTableRecord
100
AcDbBlockTableRecord
  2
*Paper_Space0
340
26
  0
BLOCK_RECORD
  5
98
330
1
100
AcDbSymbolTableRecord
100
AcDbBlockTableRecord
  2
_D
340
0
  0
BLOCK_RECORD
  5
A9
330
1
100
AcDbSymbolTableRecord
100
AcDbBlockTableRecord
  2
_D_1
340
0
  0
BLOCK_RECORD
  5
BA
330
1
100
AcDbSymbolTableRecord
100
AcDbBlockTableRecord
  2
_D_2
340
0
  0
BLOCK_RECORD
  5
CB
330
1
100
AcDbSymbolTableRecord
100
AcDbBlockTableRecord
  2
_D_3
340
0
  0
BLOCK_RECORD
  5
DC
330
1
100
AcDbSymbolTableRecord
100
AcDbBlockTableRecord
  2
_D_4
340
0
  0
BLOCK_RECORD
  5
EE
330
1
100
AcDbSymbolTableRecord
100
AcDbBlockTableRecord
  2
_D_5
340
0
  0
BLOCK_RECORD
  5
100
330
1
100
AcDbSymbolTableRecord
100
AcDbBlockTableRecord
  2
_D_6
340
0
  0
BLOCK_RECORD
  5
112
330
1
100
AcDbSymbolTableRecord
100
AcDbBlockTableRecord
  2
_D_7
340
0
  0
BLOCK_RECORD
  5
124
330
1
100
AcDbSymbolTableRecord
100
AcDbBlockTableRecord
  2
_D_8
340
0
  0
BLOCK_RECORD
  5
136
330
1
100
AcDbSymbolTableRecord
100
AcDbBlockTableRecord
  2
_D_9
340
0
  0
BLOCK_RECORD
  5
148
330
1
100
AcDbSymbolTableRecord
100
AcDbBlockTableRecord
  2
_D_10
340
0
  0
BLOCK_RECORD
  5
15A
330
1
100
AcDbSymbolTableRecord
100
AcDbBlockTableRecord
  2
_D_11
340
0
  0
BLOCK_RECORD
  5
16D
330
1
100
AcDbSymbolTableRecord
100
AcDbBlockTableRecord
  2
_D_12
340
0
  0
BLOCK_RECORD
  5
17E
330
1
100
AcDbSymbolTableRecord
100
AcDbBlockTableRecord
  2
_D_13
340
0
  0
BLOCK_RECORD
  5
18F
330
1
100
AcDbSymbolTableRecord
100
AcDbBlockTableRecord
  2
_D_14
340
0
  0
BLOCK_RECORD
  5
1A1
330
1
100
AcDbSymbolTableRecord
100
AcDbBlockTableRecord
  2
_D_15
340
0
  0
BLOCK_RECORD
  5
1B3
330
1
100
AcDbSymbolTableRecord
100
AcDbBlockTableRecord
  2
_D_16
340
0
  0
BLOCK_RECORD
  5
1C7
330
1
100
AcDbSymbolTableRecord
100
AcDbBlockTableRecord
  2
_NONE
340
0
  0
BLOCK_RECORD
  5
1CA
330
1
100
AcDbSymbolTableRecord
100
AcDbBlockTableRecord
  2
_D_17
340
0
  0
BLOCK_RECORD
  5
1E2
330
1
100
AcDbSymbolTableRecord
100
AcDbBlockTableRecord
  2
SW_CENTERMARKSYMBOL_0
340
0
102
{BLKREFS
331
1ED
102
}
  0
BLOCK_RECORD
  5
1EE
330
1
100
AcDbSymbolTableRecord
100
AcDbBlockTableRecord
  2
SW_CENTERMARKSYMBOL_1
340
0
102
{BLKREFS
331
1F9
102
}
  0
BLOCK_RECORD
  5
1FA
330
1
100
AcDbSymbolTableRecord
100
AcDbBlockTableRecord
  2
SW_CENTERMARKSYMBOL_2
340
0
102
{BLKREFS
331
205
102
}
  0
BLOCK_RECORD
  5
206
330
1
100
AcDbSymbolTableRecord
100
AcDbBlockTableRecord
  2
SW_CENTERMARKSYMBOL_3
340
0
102
{BLKREFS
331
211
102
}
  0
BLOCK_RECORD
  5
212
330
1
100
AcDbSymbolTableRecord
100
AcDbBlockTableRecord
  2
SW_CENTERMARKSYMBOL_4
340
0
102
{BLKREFS
331
21D
102
}
  0
BLOCK_RECORD
  5
21E
330
1
100
AcDbSymbolTableRecord
100
AcDbBlockTableRecord
  2
SW_CENTERMARKSYMBOL_5
340
0
102
{BLKREFS
331
229
102
}
  0
BLOCK_RECORD
  5
22A
330
1
100
AcDbSymbolTableRecord
100
AcDbBlockTableRecord
  2
SW_CENTERMARKSYMBOL_6
340
0
102
{BLKREFS
331
235
102
}
  0
BLOCK_RECORD
  5
236
330
1
100
AcDbSymbolTableRecord
100
AcDbBlockTableRecord
  2
SW_CENTERMARKSYMBOL_7
340
0
102
{BLKREFS
331
241
102
}
  0
BLOCK_RECORD
  5
242
330
1
100
AcDbSymbolTableRecord
100
AcDbBlockTableRecord
  2
SW_CENTERMARKSYMBOL_8
340
0
102
{BLKREFS
331
24D
102
}
  0
BLOCK_RECORD
  5
24E
330
1
100
AcDbSymbolTableRecord
100
AcDbBlockTableRecord
  2
SW_CENTERMARKSYMBOL_9
340
0
102
{BLKREFS
331
259
102
}
  0
BLOCK_RECORD
  5
25A
330
1
100
AcDbSymbolTableRecord
100
AcDbBlockTableRecord
  2
SW_CENTERMARKSYMBOL_10
340
0
102
{BLKREFS
331
265
102
}
  0
BLOCK_RECORD
  5
266
330
1
100
AcDbSymbolTableRecord
100
AcDbBlockTableRecord
  2
SW_CENTERMARKSYMBOL_11
340
0
102
{BLKREFS
331
271
102
}
  0
BLOCK_RECORD
  5
272
330
1
100
AcDbSymbolTableRecord
100
AcDbBlockTableRecord
  2
SW_CENTERMARKSYMBOL_12
340
0
102
{BLKREFS
331
27D
102
}
  0
BLOCK_RECORD
  5
27E
330
1
100
AcDbSymbolTableRecord
100
AcDbBlockTableRecord
  2
SW_CENTERMARKSYMBOL_13
340
0
102
{BLKREFS
331
289
102
}
  0
BLOCK_RECORD
  5
28A
330
1
100
AcDbSymbolTableRecord
100
AcDbBlockTableRecord
  2
SW_CENTERMARKSYMBOL_14
340
0
102
{BLKREFS
331
295
102
}
  0
ENDTAB
  0
ENDSEC
  0
SECTION
  2
BLOCKS
  0
BLOCK
  5
20
330
1F
100
AcDbEntity
  8
0
100
AcDbBlockBegin
  2
*Model_Space
 70
     0
 10
0.0
 20
0.0
 30
0.0
  3
*Model_Space
  1

  0
ENDBLK
  5
21
330
1F
100
AcDbEntity
  8
0
100
AcDbBlockEnd
  0
BLOCK
  5
1C
330
1B
100
AcDbEntity
 67
     1
  8
0
100
AcDbBlockBegin
  2
*Paper_Space
 70
     0
 10
0.0
 20
0.0
 30
0.0
  3
*Paper_Space
  1

  0
ENDBLK
  5
1D
330
1B
100
AcDbEntity
 67
     1
  8
0
100
AcDbBlockEnd
  0
BLOCK
  5
24
330
23
100
AcDbEntity
  8
0
100
AcDbBlockBegin
  2
*Paper_Space0
 70
     0
 10
0.0
 20
0.0
 30
0.0
  3
*Paper_Space0
  1

  0
ENDBLK
  5
25
330
23
100
AcDbEntity
  8
0
100
AcDbBlockEnd
  0
BLOCK
  5
99
330
98
100
AcDbEntity
  8
0
100
AcDbBlockBegin
  2
_D
 70
     0
 10
0.0
 20
0.0
 30
0.0
  3
_D
  1

  0
SOLID
  5
9B
330
98
100
AcDbEntity
  8
SLD-0
100
AcDbTrace
 10
116.6981859451
 20
107.5740832443
 30
0.0
 11
123.0481859451
 21
106.5971601674
 31
0.0
 12
123.0481859451
 22
108.5510063212
 32
0.0
 13
123.0481859451
 23
108.5510063212
 33
0.0
  0
SOLID
  5
9C
330
98
100
AcDbEntity
  8
SLD-0
100
AcDbTrace
 10
726.6981859451
 20
107.5740832443
 30
0.0
 11
720.3481859451
 21
108.5510063212
 31
0.0
 12
720.3481859451
 22
106.5971601674
 32
0.0
 13
720.3481859451
 23
106.5971601674
 33
0.0
  0
LINE
  5
9D
330
98
100
AcDbEntity
  8
SLD-0
100
AcDbLine
 10
402.2707888029
 20
118.951166382
 30
0.0
 11
400.3393304405
 21
118.951166382
 31
0.0
  0
LINE
  5
9E
330
98
100
AcDbEntity
  8
SLD-0
100
AcDbLine
 10
400.3393304405
 20
118.951166382
 30
0.0
 11
400.3393304405
 21
108.8617223854
 31
0.0
  0
LINE
  5
9F
330
98
100
AcDbEntity
  8
SLD-0
100
AcDbLine
 10
400.3393304405
 20
108.8617223854
 30
0.0
 11
402.2707888029
 21
108.8617223854
 31
0.0
  0
LINE
  5
A0
330
98
100
AcDbEntity
  8
SLD-0
100
AcDbLine
 10
430.2343078992
 20
118.951166382
 30
0.0
 11
432.1657662616
 21
118.951166382
 31
0.0
  0
LINE
  5
A1
330
98
100
AcDbEntity
  8
SLD-0
100
AcDbLine
 10
432.1657662616
 20
118.951166382
 30
0.0
 11
432.1657662616
 21
108.8617223854
 31
0.0
  0
LINE
  5
A2
330
98
100
AcDbEntity
  8
SLD-0
100
AcDbLine
 10
432.1657662616
 20
108.8617223854
 30
0.0
 11
430.2343078992
 21
108.8617223854
 31
0.0
  0
LINE
  5
A3
330
98
100
AcDbEntity
  8
SLD-0
100
AcDbLine
 10
116.6981859451
 20
138.9057551237
 30
0.0
 11
116.6981859451
 21
106.5740832443
 31
0.0
  0
LINE
  5
A4
330
98
100
AcDbEntity
  8
SLD-0
100
AcDbLine
 10
726.6981859451
 20
138.9057551237
 30
0.0
 11
726.6981859451
 21
106.5740832443
 31
0.0
  0
LINE
  5
A5
330
98
100
AcDbEntity
  8
SLD-0
100
AcDbLine
 10
116.6981859451
 20
107.5740832443
 30
0.0
 11
726.6981859451
 21
107.5740832443
 31
0.0
  0
MTEXT
  5
A6
330
98
100
AcDbEntity
  8
SLD-0
100
AcDbMText
 10
368.4570372674
 20
117.0473016016
 30
0.0
 40
6.35
 41
0.0
 71
     1
 72
     1
  1
610mm
  7
SLDTEXTSTYLE0
 73
     1
 44
1.0
  0
MTEXT
  5
A7
330
98
100
AcDbEntity
  8
SLD-0
100
AcDbMText
 10
402.2707888029
 20
117.0473016016
 30
0.0
 40
6.35
 41
0.0
 71
     1
 72
     1
  1
24.02in
  7
SLDTEXTSTYLE0
 73
     1
 44
1.0
  0
ENDBLK
  5
9A
330
98
100
AcDbEntity
  8
0
100
AcDbBlockEnd
  0
BLOCK
  5
AA
330
A9
100
AcDbEntity
  8
0
100
AcDbBlockBegin
  2
_D_1
 70
     0
 10
0.0
 20
0.0
 30
0.0
  3
_D_1
  1

  0
SOLID
  5
AC
330
A9
100
AcDbEntity
  8
SLD-0
100
AcDbTrace
 10
757.4783540081
 20
464.9057551237
 30
0.0
 11
756.5014309312
 21
458.5557551237
 31
0.0
 12
758.4552770851
 22
458.5557551237
 32
0.0
 13
758.4552770851
 23
458.5557551237
 33
0.0
  0
SOLID
  5
AD
330
A9
100
AcDbEntity
  8
SLD-0
100
AcDbTrace
 10
757.4783540081
 20
139.9057551237
 30
0.0
 11
758.4552770851
 21
146.2557551237
 31
0.0
 12
756.5014309312
 22
146.2557551237
 32
0.0
 13
756.5014309312
 23
146.2557551237
 33
0.0
  0
LINE
  5
AE
330
A9
100
AcDbEntity
  8
SLD-0
100
AcDbLine
 10
746.1012708705
 20
306.626601664
 30
0.0
 11
746.1012708705
 21
304.6951433016
 31
0.0
  0
LINE
  5
AF
330
A9
100
AcDbEntity
  8
SLD-0
100
AcDbLine
 10
746.1012708705
 20
304.6951433016
 30
0.0
 11
756.1907148671
 21
304.6951433016
 31
0.0
  0
LINE
  5
B0
330
A9
100
AcDbEntity
  8
SLD-0
100
AcDbLine
 10
756.1907148671
 20
304.6951433016
 30
0.0
 11
756.1907148671
 21
306.626601664
 31
0.0
  0
LINE
  5
B1
330
A9
100
AcDbEntity
  8
SLD-0
100
AcDbLine
 10
746.1012708705
 20
334.5901207604
 30
0.0
 11
746.1012708705
 21
336.5215791228
 31
0.0
  0
LINE
  5
B2
330
A9
100
AcDbEntity
  8
SLD-0
100
AcDbLine
 10
746.1012708705
 20
336.5215791228
 30
0.0
 11
756.1907148671
 21
336.5215791228
 31
0.0
  0
LINE
  5
B3
330
A9
100
AcDbEntity
  8
SLD-0
100
AcDbLine
 10
756.1907148671
 20
336.5215791228
 30
0.0
 11
756.1907148671
 21
334.5901207604
 31
0.0
  0
LINE
  5
B4
330
A9
100
AcDbEntity
  8
SLD-0
100
AcDbLine
 10
727.6981859451
 20
464.9057551237
 30
0.0
 11
758.4783540081
 21
464.9057551237
 31
0.0
  0
LINE
  5
B5
330
A9
100
AcDbEntity
  8
SLD-0
100
AcDbLine
 10
727.6981859451
 20
139.9057551237
 30
0.0
 11
758.4783540081
 21
139.9057551237
 31
0.0
  0
LINE
  5
B6
330
A9
100
AcDbEntity
  8
SLD-0
100
AcDbLine
 10
757.4783540081
 20
464.9057551237
 30
0.0
 11
757.4783540081
 21
139.9057551237
 31
0.0
  0
MTEXT
  5
B7
330
A9
100
AcDbEntity
  8
SLD-0
100
AcDbMText
 10
748.0051356508
 20
272.8128501285
 30
0.0
 40
6.35
 41
0.0
 71
     1
 72
     1
  1
325mm
  7
SLDTEXTSTYLE0
 11
-1.059690869644414E-14
 21
1.0
 31
0.0
 73
     1
 44
1.0
  0
MTEXT
  5
B8
330
A9
100
AcDbEntity
  8
SLD-0
100
AcDbMText
 10
748.0051356508
 20
306.626601664
 30
0.0
 40
6.35
 41
0.0
 71
     1
 72
     1
  1
12.80in
  7
SLDTEXTSTYLE0
 11
-1.059690869644414E-14
 21
1.0
 31
0.0
 73
     1
 44
1.0
  0
ENDBLK
  5
AB
330
A9
100
AcDbEntity
  8
0
100
AcDbBlockEnd
  0
BLOCK
  5
BB
330
BA
100
AcDbEntity
  8
0
100
AcDbBlockBegin
  2
_D_2
 70
     0
 10
0.0
 20
0.0
 30
0.0
  3
_D_2
  1

  0
SOLID
  5
BD
330
BA
100
AcDbEntity
  8
SLD-0
100
AcDbTrace
 10
1180.753694846
 20
147.4057551237
 30
0.0
 11
1181.7306179229
 21
153.7557551237
 31
0.0
 12
1179.7767717691
 22
153.7557551237
 32
0.0
 13
1179.7767717691
 23
153.7557551237
 33
0.0
  0
SOLID
  5
BE
330
BA
100
AcDbEntity
  8
SLD-0
100
AcDbTrace
 10
1180.753694846
 20
457.4057551237
 30
0.0
 11
1179.7767717691
 21
451.0557551237
 31
0.0
 12
1181.7306179229
 22
451.0557551237
 32
0.0
 13
1181.7306179229
 23
451.0557551237
 33
0.0
  0
LINE
  5
BF
330
BA
100
AcDbEntity
  8
SLD-0
100
AcDbLine
 10
1169.3766117083
 20
306.2294091247
 30
0.0
 11
1169.3766117083
 21
304.2979507623
 31
0.0
  0
LINE
  5
C0
330
BA
100
AcDbEntity
  8
SLD-0
100
AcDbLine
 10
1169.3766117083
 20
304.2979507623
 30
0.0
 11
1179.4660557049
 21
304.2979507623
 31
0.0
  0
LINE
  5
C1
330
BA
100
AcDbEntity
  8
SLD-0
100
AcDbLine
 10
1179.4660557049
 20
304.2979507623
 30
0.0
 11
1179.4660557049
 21
306.2294091247
 31
0.0
  0
LINE
  5
C2
330
BA
100
AcDbEntity
  8
SLD-0
100
AcDbLine
 10
1169.3766117083
 20
334.1929282211
 30
0.0
 11
1169.3766117083
 21
336.1243865835
 31
0.0
  0
LINE
  5
C3
330
BA
100
AcDbEntity
  8
SLD-0
100
AcDbLine
 10
1169.3766117083
 20
336.1243865835
 30
0.0
 11
1179.4660557049
 21
336.1243865835
 31
0.0
  0
LINE
  5
C4
330
BA
100
AcDbEntity
  8
SLD-0
100
AcDbLine
 10
1179.4660557049
 20
336.1243865835
 30
0.0
 11
1179.4660557049
 21
334.1929282211
 31
0.0
  0
LINE
  5
C5
330
BA
100
AcDbEntity
  8
SLD-0
100
AcDbLine
 10
1152.6981859451
 20
147.4057551237
 30
0.0
 11
1181.753694846
 21
147.4057551237
 31
0.0
  0
LINE
  5
C6
330
BA
100
AcDbEntity
  8
SLD-0
100
AcDbLine
 10
1152.6981859451
 20
457.4057551237
 30
0.0
 11
1181.753694846
 21
457.4057551237
 31
0.0
  0
LINE
  5
C7
330
BA
100
AcDbEntity
  8
SLD-0
100
AcDbLine
 10
1180.753694846
 20
147.4057551237
 30
0.0
 11
1180.753694846
 21
457.4057551237
 31
0.0
  0
MTEXT
  5
C8
330
BA
100
AcDbEntity
  8
SLD-0
100
AcDbMText
 10
1171.2804764887
 20
272.4156575892
 30
0.0
 40
6.35
 41
0.0
 71
     1
 72
     1
  1
310mm
  7
SLDTEXTSTYLE0
 11
-3.491481338843133E-15
 21
1.0
 31
0.0
 73
     1
 44
1.0
  0
MTEXT
  5
C9
330
BA
100
AcDbEntity
  8
SLD-0
100
AcDbMText
 10
1171.2804764887
 20
306.2294091247
 30
0.0
 40
6.35
 41
0.0
 71
     1
 72
     1
  1
12.20in
  7
SLDTEXTSTYLE0
 11
-3.491481338843133E-15
 21
1.0
 31
0.0
 73
     1
 44
1.0
  0
ENDBLK
  5
BC
330
BA
100
AcDbEntity
  8
0
100
AcDbBlockEnd
  0
BLOCK
  5
CC
330
CB
100
AcDbEntity
  8
0
100
AcDbBlockBegin
  2
_D_3
 70
     0
 10
0.0
 20
0.0
 30
0.0
  3
_D_3
  1

  0
SOLID
  5
CE
330
CB
100
AcDbEntity
  8
SLD-0
100
AcDbTrace
 10
991.6981859451
 20
107.5740832443
 30
0.0
 11
998.0481859451
 21
106.5971601674
 31
0.0
 12
998.0481859451
 22
108.5510063212
 32
0.0
 13
998.0481859451
 23
108.5510063212
 33
0.0
  0
SOLID
  5
CF
330
CB
100
AcDbEntity
  8
SLD-0
100
AcDbTrace
 10
1151.6981859451
 20
107.5740832443
 30
0.0
 11
1145.3481859451
 21
108.5510063212
 31
0.0
 12
1145.3481859451
 22
106.5971601674
 32
0.0
 13
1145.3481859451
 23
106.5971601674
 33
0.0
  0
LINE
  5
D0
330
CB
100
AcDbEntity
  8
SLD-0
100
AcDbLine
 10
1085.5871272581
 20
118.951166382
 30
0.0
 11
1083.6556688957
 21
118.951166382
 31
0.0
  0
LINE
  5
D1
330
CB
100
AcDbEntity
  8
SLD-0
100
AcDbLine
 10
1083.6556688957
 20
118.951166382
 30
0.0
 11
1083.6556688957
 21
108.8617223854
 31
0.0
  0
LINE
  5
D2
330
CB
100
AcDbEntity
  8
SLD-0
100
AcDbLine
 10
1083.6556688957
 20
108.8617223854
 30
0.0
 11
1085.5871272581
 21
108.8617223854
 31
0.0
  0
LINE
  5
D3
330
CB
100
AcDbEntity
  8
SLD-0
100
AcDbLine
 10
1108.8587009656
 20
118.951166382
 30
0.0
 11
1110.7901593279
 21
118.951166382
 31
0.0
  0
LINE
  5
D4
330
CB
100
AcDbEntity
  8
SLD-0
100
AcDbLine
 10
1110.7901593279
 20
118.951166382
 30
0.0
 11
1110.7901593279
 21
108.8617223854
 31
0.0
  0
LINE
  5
D5
330
CB
100
AcDbEntity
  8
SLD-0
100
AcDbLine
 10
1110.7901593279
 20
108.8617223854
 30
0.0
 11
1108.8587009656
 21
108.8617223854
 31
0.0
  0
LINE
  5
D6
330
CB
100
AcDbEntity
  8
SLD-0
100
AcDbLine
 10
991.6981859451
 20
146.4057551237
 30
0.0
 11
991.6981859451
 21
106.5740832443
 31
0.0
  0
LINE
  5
D7
330
CB
100
AcDbEntity
  8
SLD-0
100
AcDbLine
 10
1151.6981859451
 20
146.4057551237
 30
0.0
 11
1151.6981859451
 21
106.5740832443
 31
0.0
  0
LINE
  5
D8
330
CB
100
AcDbEntity
  8
SLD-0
100
AcDbLine
 10
991.6981859451
 20
107.5740832443
 30
0.0
 11
1151.6981859451
 21
107.5740832443
 31
0.0
  0
MTEXT
  5
D9
330
CB
100
AcDbEntity
  8
SLD-0
100
AcDbMText
 10
1051.7733757226
 20
117.0473016016
 30
0.0
 40
6.35
 41
0.0
 71
     1
 72
     1
  1
160mm
  7
SLDTEXTSTYLE0
 73
     1
 44
1.0
  0
MTEXT
  5
DA
330
CB
100
AcDbEntity
  8
SLD-0
100
AcDbMText
 10
1085.5871272581
 20
117.0473016016
 30
0.0
 40
6.35
 41
0.0
 71
     1
 72
     1
  1
6.30in
  7
SLDTEXTSTYLE0
 73
     1
 44
1.0
  0
ENDBLK
  5
CD
330
CB
100
AcDbEntity
  8
0
100
AcDbBlockEnd
  0
BLOCK
  5
DD
330
DC
100
AcDbEntity
  8
0
100
AcDbBlockBegin
  2
_D_4
 70
     0
 10
0.0
 20
0.0
 30
0.0
  3
_D_4
  1

  0
SOLID
  5
DF
330
DC
100
AcDbEntity
  8
SLD-0
100
AcDbTrace
 10
1468.7140561065
 20
127.4048751237
 30
0.0
 11
1469.6909791834
 21
133.7548751237
 31
0.0
 12
1467.7371330296
 22
133.7548751237
 32
0.0
 13
1467.7371330296
 23
133.7548751237
 33
0.0
  0
SOLID
  5
E0
330
DC
100
AcDbEntity
  8
SLD-0
100
AcDbTrace
 10
1468.7140561065
 20
477.4048751237
 30
0.0
 11
1467.7371330296
 21
471.0548751237
 31
0.0
 12
1469.6909791834
 22
471.0548751237
 32
0.0
 13
1469.6909791834
 23
471.0548751237
 33
0.0
  0
LINE
  5
E1
330
DC
100
AcDbEntity
  8
SLD-0
100
AcDbLine
 10
1457.3369729688
 20
288.678553865
 30
0.0
 11
1457.3369729688
 21
286.7470955026
 31
0.0
  0
LINE
  5
E2
330
DC
100
AcDbEntity
  8
SLD-0
100
AcDbLine
 10
1457.3369729688
 20
286.7470955026
 30
0.0
 11
1467.4264169654
 21
286.7470955026
 31
0.0
  0
LINE
  5
E3
330
DC
100
AcDbEntity
  8
SLD-0
100
AcDbLine
 10
1467.4264169654
 20
286.7470955026
 30
0.0
 11
1467.4264169654
 21
288.678553865
 31
0.0
  0
LINE
  5
E4
330
DC
100
AcDbEntity
  8
SLD-0
100
AcDbLine
 10
1457.3369729688
 20
316.6420729613
 30
0.0
 11
1457.3369729688
 21
318.5735313237
 31
0.0
  0
LINE
  5
E5
330
DC
100
AcDbEntity
  8
SLD-0
100
AcDbLine
 10
1457.3369729688
 20
318.5735313237
 30
0.0
 11
1467.4264169654
 21
318.5735313237
 31
0.0
  0
LINE
  5
E6
330
DC
100
AcDbEntity
  8
SLD-0
100
AcDbLine
 10
1467.4264169654
 20
318.5735313237
 30
0.0
 11
1467.4264169654
 21
316.6420729613
 31
0.0
  0
LINE
  5
E7
330
DC
100
AcDbEntity
  8
SLD-0
100
AcDbLine
 10
1484.1981859451
 20
127.4048751237
 30
0.0
 11
1467.7140561065
 21
127.4048751237
 31
0.0
  0
LINE
  5
E8
330
DC
100
AcDbEntity
  8
SLD-0
100
AcDbLine
 10
1484.1981859451
 20
477.4048751237
 30
0.0
 11
1467.7140561065
 21
477.4048751237
 31
0.0
  0
LINE
  5
E9
330
DC
100
AcDbEntity
  8
SLD-0
100
AcDbLine
 10
1468.7140561065
 20
127.4048751237
 30
0.0
 11
1468.7140561065
 21
477.4048751237
 31
0.0
  0
MTEXT
  5
EA
330
DC
100
AcDbEntity
  8
SLD-0
100
AcDbMText
 10
1459.2408377492
 20
254.8648023295
 30
0.0
 40
6.35
 41
0.0
 71
     1
 72
     1
  1
350mm
  7
SLDTEXTSTYLE0
 11
-3.491481338843133E-15
 21
1.0
 31
0.0
 73
     1
 44
1.0
  0
MTEXT
  5
EB
330
DC
100
AcDbEntity
  8
SLD-0
100
AcDbMText
 10
1459.2408377492
 20
288.678553865
 30
0.0
 40
6.35
 41
0.0
 71
     1
 72
     1
  1
13.78in
  7
SLDTEXTSTYLE0
 11
-3.491481338843133E-15
 21
1.0
 31
0.0
 73
     1
 44
1.0
  0
MTEXT
  5
EC
330
DC
100
AcDbEntity
  8
SLD-0
100
AcDbMText
 10
1459.2408377492
 20
322.8862410831
 30
0.0
 40
6.35
 41
0.0
 71
     1
 72
     1
  1
TYP.
  7
SLDTEXTSTYLE0
 11
-3.491481338843133E-15
 21
1.0
 31
0.0
 73
     1
 44
1.0
  0
ENDBLK
  5
DE
330
DC
100
AcDbEntity
  8
0
100
AcDbBlockEnd
  0
BLOCK
  5
EF
330
EE
100
AcDbEntity
  8
0
100
AcDbBlockBegin
  2
_D_5
 70
     0
 10
0.0
 20
0.0
 30
0.0
  3
_D_5
  1

  0
SOLID
  5
F1
330
EE
100
AcDbEntity
  8
SLD-0
100
AcDbTrace
 10
1275.6981859451
 20
495.6837328935
 30
0.0
 11
1282.0481859451
 21
494.7068098166
 31
0.0
 12
1282.0481859451
 22
496.6606559704
 32
0.0
 13
1282.0481859451
 23
496.6606559704
 33
0.0
  0
SOLID
  5
F2
330
EE
100
AcDbEntity
  8
SLD-0
100
AcDbTrace
 10
1491.6981859451
 20
495.6837328935
 30
0.0
 11
1485.3481859451
 21
496.6606559704
 31
0.0
 12
1485.3481859451
 22
494.7068098166
 32
0.0
 13
1485.3481859451
 23
494.7068098166
 33
0.0
  0
LINE
  5
F3
330
EE
100
AcDbEntity
  8
SLD-0
100
AcDbLine
 10
1384.6923741618
 20
507.0608160311
 30
0.0
 11
1382.7609157995
 21
507.0608160311
 31
0.0
  0
LINE
  5
F4
330
EE
100
AcDbEntity
  8
SLD-0
100
AcDbLine
 10
1382.7609157995
 20
507.0608160311
 30
0.0
 11
1382.7609157995
 21
496.9713720346
 31
0.0
  0
LINE
  5
F5
330
EE
100
AcDbEntity
  8
SLD-0
100
AcDbLine
 10
1382.7609157995
 20
496.9713720346
 30
0.0
 11
1384.6923741618
 21
496.9713720346
 31
0.0
  0
LINE
  5
F6
330
EE
100
AcDbEntity
  8
SLD-0
100
AcDbLine
 10
1407.9639478693
 20
507.0608160311
 30
0.0
 11
1409.8954062317
 21
507.0608160311
 31
0.0
  0
LINE
  5
F7
330
EE
100
AcDbEntity
  8
SLD-0
100
AcDbLine
 10
1409.8954062317
 20
507.0608160311
 30
0.0
 11
1409.8954062317
 21
496.9713720346
 31
0.0
  0
LINE
  5
F8
330
EE
100
AcDbEntity
  8
SLD-0
100
AcDbLine
 10
1409.8954062317
 20
496.9713720346
 30
0.0
 11
1407.9639478693
 21
496.9713720346
 31
0.0
  0
LINE
  5
F9
330
EE
100
AcDbEntity
  8
SLD-0
100
AcDbLine
 10
1275.6981859451
 20
484.9048751237
 30
0.0
 11
1275.6981859451
 21
496.6837328935
 31
0.0
  0
LINE
  5
FA
330
EE
100
AcDbEntity
  8
SLD-0
100
AcDbLine
 10
1491.6981859451
 20
484.9048751237
 30
0.0
 11
1491.6981859451
 21
496.6837328935
 31
0.0
  0
LINE
  5
FB
330
EE
100
AcDbEntity
  8
SLD-0
100
AcDbLine
 10
1275.6981859451
 20
495.6837328935
 30
0.0
 11
1491.6981859451
 21
495.6837328935
 31
0.0
  0
MTEXT
  5
FC
330
EE
100
AcDbEntity
  8
SLD-0
100
AcDbMText
 10
1350.8786226263
 20
505.1569512508
 30
0.0
 40
6.35
 41
0.0
 71
     1
 72
     1
  1
216mm
  7
SLDTEXTSTYLE0
 73
     1
 44
1.0
  0
MTEXT
  5
FD
330
EE
100
AcDbEntity
  8
SLD-0
100
AcDbMText
 10
1384.6923741618
 20
505.1569512508
 30
0.0
 40
6.35
 41
0.0
 71
     1
 72
     1
  1
8.50in
  7
SLDTEXTSTYLE0
 73
     1
 44
1.0
  0
MTEXT
  5
FE
330
EE
100
AcDbEntity
  8
SLD-0
100
AcDbMText
 10
1414.2081141284
 20
505.1569512508
 30
0.0
 40
6.35
 41
0.0
 71
     1
 72
     1
  1
TYP.
  7
SLDTEXTSTYLE0
 73
     1
 44
1.0
  0
ENDBLK
  5
F0
330
EE
100
AcDbEntity
  8
0
100
AcDbBlockEnd
  0
BLOCK
  5
101
330
100
100
AcDbEntity
  8
0
100
AcDbBlockBegin
  2
_D_6
 70
     0
 10
0.0
 20
0.0
 30
0.0
  3
_D_6
  1

  0
SOLID
  5
103
330
100
100
AcDbEntity
  8
SLD-0
100
AcDbTrace
 10
1059.6981859451
 20
495.6837328935
 30
0.0
 11
1066.0481859451
 21
494.7068098166
 31
0.0
 12
1066.0481859451
 22
496.6606559704
 32
0.0
 13
1066.0481859451
 23
496.6606559704
 33
0.0
  0
SOLID
  5
104
330
100
100
AcDbEntity
  8
SLD-0
100
AcDbTrace
 10
1275.6981859451
 20
495.6837328935
 30
0.0
 11
1269.3481859451
 21
496.6606559704
 31
0.0
 12
1269.3481859451
 22
494.7068098166
 32
0.0
 13
1269.3481859451
 23
494.7068098166
 33
0.0
  0
LINE
  5
105
330
100
100
AcDbEntity
  8
SLD-0
100
AcDbLine
 10
1152.1462259443
 20
507.0608160311
 30
0.0
 11
1150.214767582
 21
507.0608160311
 31
0.0
  0
LINE
  5
106
330
100
100
AcDbEntity
  8
SLD-0
100
AcDbLine
 10
1150.214767582
 20
507.0608160311
 30
0.0
 11
1150.214767582
 21
496.9713720346
 31
0.0
  0
LINE
  5
107
330
100
100
AcDbEntity
  8
SLD-0
100
AcDbLine
 10
1150.214767582
 20
496.9713720346
 30
0.0
 11
1152.1462259443
 21
496.9713720346
 31
0.0
  0
LINE
  5
108
330
100
100
AcDbEntity
  8
SLD-0
100
AcDbLine
 10
1175.4177996518
 20
507.0608160311
 30
0.0
 11
1177.3492580142
 21
507.0608160311
 31
0.0
  0
LINE
  5
109
330
100
100
AcDbEntity
  8
SLD-0
100
AcDbLine
 10
1177.3492580142
 20
507.0608160311
 30
0.0
 11
1177.3492580142
 21
496.9713720346
 31
0.0
  0
LINE
  5
10A
330
100
100
AcDbEntity
  8
SLD-0
100
AcDbLine
 10
1177.3492580142
 20
496.9713720346
 30
0.0
 11
1175.4177996518
 21
496.9713720346
 31
0.0
  0
LINE
  5
10B
330
100
100
AcDbEntity
  8
SLD-0
100
AcDbLine
 10
1059.6981859451
 20
484.9048751237
 30
0.0
 11
1059.6981859451
 21
496.6837328935
 31
0.0
  0
LINE
  5
10C
330
100
100
AcDbEntity
  8
SLD-0
100
AcDbLine
 10
1275.6981859451
 20
484.9048751237
 30
0.0
 11
1275.6981859451
 21
496.6837328935
 31
0.0
  0
LINE
  5
10D
330
100
100
AcDbEntity
  8
SLD-0
100
AcDbLine
 10
1059.6981859451
 20
495.6837328935
 30
0.0
 11
1275.6981859451
 21
495.6837328935
 31
0.0
  0
MTEXT
  5
10E
330
100
100
AcDbEntity
  8
SLD-0
100
AcDbMText
 10
1118.3324744089
 20
505.1569512508
 30
0.0
 40
6.35
 41
0.0
 71
     1
 72
     1
  1
216mm
  7
SLDTEXTSTYLE0
 73
     1
 44
1.0
  0
MTEXT
  5
10F
330
100
100
AcDbEntity
  8
SLD-0
100
AcDbMText
 10
1152.1462259443
 20
505.1569512508
 30
0.0
 40
6.35
 41
0.0
 71
     1
 72
     1
  1
8.50in
  7
SLDTEXTSTYLE0
 73
     1
 44
1.0
  0
MTEXT
  5
110
330
100
100
AcDbEntity
  8
SLD-0
100
AcDbMText
 10
1181.6619659109
 20
505.1569512508
 30
0.0
 40
6.35
 41
0.0
 71
     1
 72
     1
  1
TYP.
  7
SLDTEXTSTYLE0
 73
     1
 44
1.0
  0
ENDBLK
  5
102
330
100
100
AcDbEntity
  8
0
100
AcDbBlockEnd
  0
BLOCK
  5
113
330
112
100
AcDbEntity
  8
0
100
AcDbBlockBegin
  2
_D_7
 70
     0
 10
0.0
 20
0.0
 30
0.0
  3
_D_7
  1

  0
SOLID
  5
115
330
112
100
AcDbEntity
  8
SLD-0
100
AcDbTrace
 10
843.6981859451
 20
495.6837328935
 30
0.0
 11
850.0481859451
 21
494.7068098166
 31
0.0
 12
850.0481859451
 22
496.6606559704
 32
0.0
 13
850.0481859451
 23
496.6606559704
 33
0.0
  0
SOLID
  5
116
330
112
100
AcDbEntity
  8
SLD-0
100
AcDbTrace
 10
1059.6981859451
 20
495.6837328935
 30
0.0
 11
1053.3481859451
 21
496.6606559704
 31
0.0
 12
1053.3481859451
 22
494.7068098166
 32
0.0
 13
1053.3481859451
 23
494.7068098166
 33
0.0
  0
LINE
  5
117
330
112
100
AcDbEntity
  8
SLD-0
100
AcDbLine
 10
936.4325577147
 20
507.0608160311
 30
0.0
 11
934.5010993523
 21
507.0608160311
 31
0.0
  0
LINE
  5
118
330
112
100
AcDbEntity
  8
SLD-0
100
AcDbLine
 10
934.5010993523
 20
507.0608160311
 30
0.0
 11
934.5010993523
 21
496.9713720346
 31
0.0
  0
LINE
  5
119
330
112
100
AcDbEntity
  8
SLD-0
100
AcDbLine
 10
934.5010993523
 20
496.9713720346
 30
0.0
 11
936.4325577147
 21
496.9713720346
 31
0.0
  0
LINE
  5
11A
330
112
100
AcDbEntity
  8
SLD-0
100
AcDbLine
 10
959.7041314221
 20
507.0608160311
 30
0.0
 11
961.6355897845
 21
507.0608160311
 31
0.0
  0
LINE
  5
11B
330
112
100
AcDbEntity
  8
SLD-0
100
AcDbLine
 10
961.6355897845
 20
507.0608160311
 30
0.0
 11
961.6355897845
 21
496.9713720346
 31
0.0
  0
LINE
  5
11C
330
112
100
AcDbEntity
  8
SLD-0
100
AcDbLine
 10
961.6355897845
 20
496.9713720346
 30
0.0
 11
959.7041314221
 21
496.9713720346
 31
0.0
  0
LINE
  5
11D
330
112
100
AcDbEntity
  8
SLD-0
100
AcDbLine
 10
843.6981859451
 20
484.9048751237
 30
0.0
 11
843.6981859451
 21
496.6837328935
 31
0.0
  0
LINE
  5
11E
330
112
100
AcDbEntity
  8
SLD-0
100
AcDbLine
 10
1059.6981859451
 20
484.9048751237
 30
0.0
 11
1059.6981859451
 21
496.6837328935
 31
0.0
  0
LINE
  5
11F
330
112
100
AcDbEntity
  8
SLD-0
100
AcDbLine
 10
843.6981859451
 20
495.6837328935
 30
0.0
 11
1059.6981859451
 21
495.6837328935
 31
0.0
  0
MTEXT
  5
120
330
112
100
AcDbEntity
  8
SLD-0
100
AcDbMText
 10
902.6188061792
 20
505.1569512508
 30
0.0
 40
6.35
 41
0.0
 71
     1
 72
     1
  1
216mm
  7
SLDTEXTSTYLE0
 73
     1
 44
1.0
  0
MTEXT
  5
121
330
112
100
AcDbEntity
  8
SLD-0
100
AcDbMText
 10
936.4325577147
 20
505.1569512508
 30
0.0
 40
6.35
 41
0.0
 71
     1
 72
     1
  1
8.50in
  7
SLDTEXTSTYLE0
 73
     1
 44
1.0
  0
MTEXT
  5
122
330
112
100
AcDbEntity
  8
SLD-0
100
AcDbMText
 10
965.9482976812
 20
505.1569512508
 30
0.0
 40
6.35
 41
0.0
 71
     1
 72
     1
  1
TYP.
  7
SLDTEXTSTYLE0
 73
     1
 44
1.0
  0
ENDBLK
  5
114
330
112
100
AcDbEntity
  8
0
100
AcDbBlockEnd
  0
BLOCK
  5
125
330
124
100
AcDbEntity
  8
0
100
AcDbBlockBegin
  2
_D_8
 70
     0
 10
0.0
 20
0.0
 30
0.0
  3
_D_8
  1

  0
SOLID
  5
127
330
124
100
AcDbEntity
  8
SLD-0
100
AcDbTrace
 10
563.6981859451
 20
495.6837328935
 30
0.0
 11
570.0481859451
 21
494.7068098166
 31
0.0
 12
570.0481859451
 22
496.6606559704
 32
0.0
 13
570.0481859451
 23
496.6606559704
 33
0.0
  0
SOLID
  5
128
330
124
100
AcDbEntity
  8
SLD-0
100
AcDbTrace
 10
843.6981859451
 20
495.6837328935
 30
0.0
 11
837.3481859451
 21
496.6606559704
 31
0.0
 12
837.3481859451
 22
494.7068098166
 32
0.0
 13
837.3481859451
 23
494.7068098166
 33
0.0
  0
LINE
  5
129
330
124
100
AcDbEntity
  8
SLD-0
100
AcDbLine
 10
684.8134989485
 20
507.0608160311
 30
0.0
 11
682.8820405861
 21
507.0608160311
 31
0.0
  0
LINE
  5
12A
330
124
100
AcDbEntity
  8
SLD-0
100
AcDbLine
 10
682.8820405861
 20
507.0608160311
 30
0.0
 11
682.8820405861
 21
496.9713720346
 31
0.0
  0
LINE
  5
12B
330
124
100
AcDbEntity
  8
SLD-0
100
AcDbLine
 10
682.8820405861
 20
496.9713720346
 30
0.0
 11
684.8134989485
 21
496.9713720346
 31
0.0
  0
LINE
  5
12C
330
124
100
AcDbEntity
  8
SLD-0
100
AcDbLine
 10
712.7770180449
 20
507.0608160311
 30
0.0
 11
714.7084764073
 21
507.0608160311
 31
0.0
  0
LINE
  5
12D
330
124
100
AcDbEntity
  8
SLD-0
100
AcDbLine
 10
714.7084764073
 20
507.0608160311
 30
0.0
 11
714.7084764073
 21
496.9713720346
 31
0.0
  0
LINE
  5
12E
330
124
100
AcDbEntity
  8
SLD-0
100
AcDbLine
 10
714.7084764073
 20
496.9713720346
 30
0.0
 11
712.7770180449
 21
496.9713720346
 31
0.0
  0
LINE
  5
12F
330
124
100
AcDbEntity
  8
SLD-0
100
AcDbLine
 10
563.6981859451
 20
484.9048751237
 30
0.0
 11
563.6981859451
 21
496.6837328935
 31
0.0
  0
LINE
  5
130
330
124
100
AcDbEntity
  8
SLD-0
100
AcDbLine
 10
843.6981859451
 20
484.9048751237
 30
0.0
 11
843.6981859451
 21
496.6837328935
 31
0.0
  0
LINE
  5
131
330
124
100
AcDbEntity
  8
SLD-0
100
AcDbLine
 10
563.6981859451
 20
495.6837328935
 30
0.0
 11
843.6981859451
 21
495.6837328935
 31
0.0
  0
MTEXT
  5
132
330
124
100
AcDbEntity
  8
SLD-0
100
AcDbMText
 10
650.999747413
 20
505.1569512508
 30
0.0
 40
6.35
 41
0.0
 71
     1
 72
     1
  1
280mm
  7
SLDTEXTSTYLE0
 73
     1
 44
1.0
  0
MTEXT
  5
133
330
124
100
AcDbEntity
  8
SLD-0
100
AcDbMText
 10
684.8134989485
 20
505.1569512508
 30
0.0
 40
6.35
 41
0.0
 71
     1
 72
     1
  1
11.02in
  7
SLDTEXTSTYLE0
 73
     1
 44
1.0
  0
MTEXT
  5
134
330
124
100
AcDbEntity
  8
SLD-0
100
AcDbMText
 10
719.0211861666
 20
505.1569512508
 30
0.0
 40
6.35
 41
0.0
 71
     1
 72
     1
  1
TYP.
  7
SLDTEXTSTYLE0
 73
     1
 44
1.0
  0
ENDBLK
  5
126
330
124
100
AcDbEntity
  8
0
100
AcDbBlockEnd
  0
BLOCK
  5
137
330
136
100
AcDbEntity
  8
0
100
AcDbBlockBegin
  2
_D_9
 70
     0
 10
0.0
 20
0.0
 30
0.0
  3
_D_9
  1

  0
SOLID
  5
139
330
136
100
AcDbEntity
  8
SLD-0
100
AcDbTrace
 10
347.6981859451
 20
495.6837328935
 30
0.0
 11
354.0481859451
 21
494.7068098166
 31
0.0
 12
354.0481859451
 22
496.6606559704
 32
0.0
 13
354.0481859451
 23
496.6606559704
 33
0.0
  0
SOLID
  5
13A
330
136
100
AcDbEntity
  8
SLD-0
100
AcDbTrace
 10
563.6981859451
 20
495.6837328935
 30
0.0
 11
557.3481859451
 21
496.6606559704
 31
0.0
 12
557.3481859451
 22
494.7068098166
 32
0.0
 13
557.3481859451
 23
494.7068098166
 33
0.0
  0
LINE
  5
13B
330
136
100
AcDbEntity
  8
SLD-0
100
AcDbLine
 10
436.6648480331
 20
507.0608160311
 30
0.0
 11
434.7333896707
 21
507.0608160311
 31
0.0
  0
LINE
  5
13C
330
136
100
AcDbEntity
  8
SLD-0
100
AcDbLine
 10
434.7333896707
 20
507.0608160311
 30
0.0
 11
434.7333896707
 21
496.9713720346
 31
0.0
  0
LINE
  5
13D
330
136
100
AcDbEntity
  8
SLD-0
100
AcDbLine
 10
434.7333896707
 20
496.9713720346
 30
0.0
 11
436.6648480331
 21
496.9713720346
 31
0.0
  0
LINE
  5
13E
330
136
100
AcDbEntity
  8
SLD-0
100
AcDbLine
 10
459.9364217405
 20
507.0608160311
 30
0.0
 11
461.8678801029
 21
507.0608160311
 31
0.0
  0
LINE
  5
13F
330
136
100
AcDbEntity
  8
SLD-0
100
AcDbLine
 10
461.8678801029
 20
507.0608160311
 30
0.0
 11
461.8678801029
 21
496.9713720346
 31
0.0
  0
LINE
  5
140
330
136
100
AcDbEntity
  8
SLD-0
100
AcDbLine
 10
461.8678801029
 20
496.9713720346
 30
0.0
 11
459.9364217405
 21
496.9713720346
 31
0.0
  0
LINE
  5
141
330
136
100
AcDbEntity
  8
SLD-0
100
AcDbLine
 10
347.6981859451
 20
484.9048751237
 30
0.0
 11
347.6981859451
 21
496.6837328935
 31
0.0
  0
LINE
  5
142
330
136
100
AcDbEntity
  8
SLD-0
100
AcDbLine
 10
563.6981859451
 20
484.9048751237
 30
0.0
 11
563.6981859451
 21
496.6837328935
 31
0.0
  0
LINE
  5
143
330
136
100
AcDbEntity
  8
SLD-0
100
AcDbLine
 10
347.6981859451
 20
495.6837328935
 30
0.0
 11
563.6981859451
 21
495.6837328935
 31
0.0
  0
MTEXT
  5
144
330
136
100
AcDbEntity
  8
SLD-0
100
AcDbMText
 10
402.8510964976
 20
505.1569512508
 30
0.0
 40
6.35
 41
0.0
 71
     1
 72
     1
  1
216mm
  7
SLDTEXTSTYLE0
 73
     1
 44
1.0
  0
MTEXT
  5
145
330
136
100
AcDbEntity
  8
SLD-0
100
AcDbMText
 10
436.6648480331
 20
505.1569512508
 30
0.0
 40
6.35
 41
0.0
 71
     1
 72
     1
  1
8.50in
  7
SLDTEXTSTYLE0
 73
     1
 44
1.0
  0
MTEXT
  5
146
330
136
100
AcDbEntity
  8
SLD-0
100
AcDbMText
 10
466.1805879996
 20
505.1569512508
 30
0.0
 40
6.35
 41
0.0
 71
     1
 72
     1
  1
TYP.
  7
SLDTEXTSTYLE0
 73
     1
 44
1.0
  0
ENDBLK
  5
138
330
136
100
AcDbEntity
  8
0
100
AcDbBlockEnd
  0
BLOCK
  5
149
330
148
100
AcDbEntity
  8
0
100
AcDbBlockBegin
  2
_D_10
 70
     0
 10
0.0
 20
0.0
 30
0.0
  3
_D_10
  1

  0
SOLID
  5
14B
330
148
100
AcDbEntity
  8
SLD-0
100
AcDbTrace
 10
131.6981859451
 20
495.6837328935
 30
0.0
 11
138.0481859451
 21
494.7068098166
 31
0.0
 12
138.0481859451
 22
496.6606559704
 32
0.0
 13
138.0481859451
 23
496.6606559704
 33
0.0
  0
SOLID
  5
14C
330
148
100
AcDbEntity
  8
SLD-0
100
AcDbTrace
 10
347.6981859451
 20
495.6837328935
 30
0.0
 11
341.3481859451
 21
496.6606559704
 31
0.0
 12
341.3481859451
 22
494.7068098166
 32
0.0
 13
341.3481859451
 23
494.7068098166
 33
0.0
  0
LINE
  5
14D
330
148
100
AcDbEntity
  8
SLD-0
100
AcDbLine
 10
222.0817385696
 20
507.0608160311
 30
0.0
 11
220.1502802073
 21
507.0608160311
 31
0.0
  0
LINE
  5
14E
330
148
100
AcDbEntity
  8
SLD-0
100
AcDbLine
 10
220.1502802073
 20
507.0608160311
 30
0.0
 11
220.1502802073
 21
496.9713720346
 31
0.0
  0
LINE
  5
14F
330
148
100
AcDbEntity
  8
SLD-0
100
AcDbLine
 10
220.1502802073
 20
496.9713720346
 30
0.0
 11
222.0817385696
 21
496.9713720346
 31
0.0
  0
LINE
  5
150
330
148
100
AcDbEntity
  8
SLD-0
100
AcDbLine
 10
245.3533122771
 20
507.0608160311
 30
0.0
 11
247.2847706395
 21
507.0608160311
 31
0.0
  0
LINE
  5
151
330
148
100
AcDbEntity
  8
SLD-0
100
AcDbLine
 10
247.2847706395
 20
507.0608160311
 30
0.0
 11
247.2847706395
 21
496.9713720346
 31
0.0
  0
LINE
  5
152
330
148
100
AcDbEntity
  8
SLD-0
100
AcDbLine
 10
247.2847706395
 20
496.9713720346
 30
0.0
 11
245.3533122771
 21
496.9713720346
 31
0.0
  0
LINE
  5
153
330
148
100
AcDbEntity
  8
SLD-0
100
AcDbLine
 10
131.6981859451
 20
484.9048751237
 30
0.0
 11
131.6981859451
 21
496.6837328935
 31
0.0
  0
LINE
  5
154
330
148
100
AcDbEntity
  8
SLD-0
100
AcDbLine
 10
347.6981859451
 20
484.9048751237
 30
0.0
 11
347.6981859451
 21
496.6837328935
 31
0.0
  0
LINE
  5
155
330
148
100
AcDbEntity
  8
SLD-0
100
AcDbLine
 10
131.6981859451
 20
495.6837328935
 30
0.0
 11
347.6981859451
 21
495.6837328935
 31
0.0
  0
MTEXT
  5
156
330
148
100
AcDbEntity
  8
SLD-0
100
AcDbMText
 10
188.2679870341
 20
505.1569512508
 30
0.0
 40
6.35
 41
0.0
 71
     1
 72
     1
  1
216mm
  7
SLDTEXTSTYLE0
 73
     1
 44
1.0
  0
MTEXT
  5
157
330
148
100
AcDbEntity
  8
SLD-0
100
AcDbMText
 10
222.0817385696
 20
505.1569512508
 30
0.0
 40
6.35
 41
0.0
 71
     1
 72
     1
  1
8.50in
  7
SLDTEXTSTYLE0
 73
     1
 44
1.0
  0
MTEXT
  5
158
330
148
100
AcDbEntity
  8
SLD-0
100
AcDbMText
 10
251.5974785362
 20
505.1569512508
 30
0.0
 40
6.35
 41
0.0
 71
     1
 72
     1
  1
TYP.
  7
SLDTEXTSTYLE0
 73
     1
 44
1.0
  0
ENDBLK
  5
14A
330
148
100
AcDbEntity
  8
0
100
AcDbBlockEnd
  0
BLOCK
  5
15B
330
15A
100
AcDbEntity
  8
0
100
AcDbBlockBegin
  2
_D_11
 70
     0
 10
0.0
 20
0.0
 30
0.0
  3
_D_11
  1

  0
SOLID
  5
15D
330
15A
100
AcDbEntity
  8
SLD-0
100
AcDbTrace
 10
105.6981859451
 20
449.3501169467
 30
0.0
 11
112.0481859451
 21
448.3731938698
 31
0.0
 12
112.0481859451
 22
450.3270400236
 32
0.0
 13
112.0481859451
 23
450.3270400236
 33
0.0
  0
SOLID
  5
15E
330
15A
100
AcDbEntity
  8
SLD-0
100
AcDbTrace
 10
131.6981859451
 20
449.3501169467
 30
0.0
 11
125.3481859451
 21
450.3270400236
 31
0.0
 12
125.3481859451
 22
448.3731938698
 32
0.0
 13
125.3481859451
 23
448.3731938698
 33
0.0
  0
LINE
  5
15F
330
15A
100
AcDbEntity
  8
SLD-0
100
AcDbLine
 10
194.0912951311
 20
460.7272000843
 30
0.0
 11
192.1598367687
 21
460.7272000843
 31
0.0
  0
LINE
  5
160
330
15A
100
AcDbEntity
  8
SLD-0
100
AcDbLine
 10
192.1598367687
 20
460.7272000843
 30
0.0
 11
192.1598367687
 21
450.6377560878
 31
0.0
  0
LINE
  5
161
330
15A
100
AcDbEntity
  8
SLD-0
100
AcDbLine
 10
192.1598367687
 20
450.6377560878
 30
0.0
 11
194.0912951311
 21
450.6377560878
 31
0.0
  0
LINE
  5
162
330
15A
100
AcDbEntity
  8
SLD-0
100
AcDbLine
 10
217.3628688386
 20
460.7272000843
 30
0.0
 11
219.294327201
 21
460.7272000843
 31
0.0
  0
LINE
  5
163
330
15A
100
AcDbEntity
  8
SLD-0
100
AcDbLine
 10
219.294327201
 20
460.7272000843
 30
0.0
 11
219.294327201
 21
450.6377560878
 31
0.0
  0
LINE
  5
164
330
15A
100
AcDbEntity
  8
SLD-0
100
AcDbLine
 10
219.294327201
 20
450.6377560878
 30
0.0
 11
217.3628688386
 21
450.6377560878
 31
0.0
  0
LINE
  5
165
330
15A
100
AcDbEntity
  8
SLD-0
100
AcDbLine
 10
105.6981859451
 20
309.9048751237
 30
0.0
 11
105.6981859451
 21
450.3501169467
 31
0.0
  0
LINE
  5
166
330
15A
100
AcDbEntity
  8
SLD-0
100
AcDbLine
 10
131.6981859451
 20
469.9048751237
 30
0.0
 11
131.6981859451
 21
448.3501169467
 31
0.0
  0
LINE
  5
167
330
15A
100
AcDbEntity
  8
SLD-0
100
AcDbLine
 10
105.6981859451
 20
449.3501169467
 30
0.0
 11
131.6981859451
 21
449.3501169467
 31
0.0
  0
LINE
  5
168
330
15A
100
AcDbEntity
  8
SLD-0
100
AcDbLine
 10
131.6981859451
 20
449.3501169467
 30
0.0
 11
221.225783235
 21
449.3501169467
 31
0.0
  0
MTEXT
  5
169
330
15A
100
AcDbEntity
  8
SLD-0
100
AcDbMText
 10
164.9694889845
 20
458.823335304
 30
0.0
 40
6.35
 41
0.0
 71
     1
 72
     1
  1
26mm
  7
SLDTEXTSTYLE0
 73
     1
 44
1.0
  0
MTEXT
  5
16A
330
15A
100
AcDbEntity
  8
SLD-0
100
AcDbMText
 10
194.0912951311
 20
458.823335304
 30
0.0
 40
6.35
 41
0.0
 71
     1
 72
     1
  1
1.02in
  7
SLDTEXTSTYLE0
 73
     1
 44
1.0
  0
ENDBLK
  5
15C
330
15A
100
AcDbEntity
  8
0
100
AcDbBlockEnd
  0
BLOCK
  5
16E
330
16D
100
AcDbEntity
  8
0
100
AcDbBlockBegin
  2
_D_12
 70
     0
 10
0.0
 20
0.0
 30
0.0
  3
_D_12
  1

  0
SOLID
  5
170
330
16D
100
AcDbEntity
  8
SLD-0
100
AcDbTrace
 10
88.6248850555
 20
477.4048751237
 30
0.0
 11
87.8107824914
 21
472.113208457
 31
0.0
 12
89.4389876196
 22
472.113208457
 32
0.0
 13
89.4389876196
 23
472.113208457
 33
0.0
  0
SOLID
  5
171
330
16D
100
AcDbEntity
  8
SLD-0
100
AcDbTrace
 10
88.6248850555
 20
302.4048751237
 30
0.0
 11
89.4389876196
 21
307.6965417904
 31
0.0
 12
87.8107824914
 22
307.6965417904
 32
0.0
 13
87.8107824914
 23
307.6965417904
 33
0.0
  0
LINE
  5
172
330
16D
100
AcDbEntity
  8
SLD-0
100
AcDbLine
 10
79.1439821303
 20
401.4414841813
 30
0.0
 11
79.1439821303
 21
399.8319356042
 31
0.0
  0
LINE
  5
173
330
16D
100
AcDbEntity
  8
SLD-0
100
AcDbLine
 10
79.1439821303
 20
399.8319356042
 30
0.0
 11
87.5518524379
 21
399.8319356042
 31
0.0
  0
LINE
  5
174
330
16D
100
AcDbEntity
  8
SLD-0
100
AcDbLine
 10
87.5518524379
 20
399.8319356042
 30
0.0
 11
87.5518524379
 21
401.4414841813
 31
0.0
  0
LINE
  5
175
330
16D
100
AcDbEntity
  8
SLD-0
100
AcDbLine
 10
79.1439821303
 20
420.8344625813
 30
0.0
 11
79.1439821303
 21
422.4440111584
 31
0.0
  0
LINE
  5
176
330
16D
100
AcDbEntity
  8
SLD-0
100
AcDbLine
 10
79.1439821303
 20
422.4440111584
 30
0.0
 11
87.5518524379
 21
422.4440111584
 31
0.0
  0
LINE
  5
177
330
16D
100
AcDbEntity
  8
SLD-0
100
AcDbLine
 10
87.5518524379
 20
422.4440111584
 30
0.0
 11
87.5518524379
 21
420.8344625813
 31
0.0
  0
LINE
  5
178
330
16D
100
AcDbEntity
  8
SLD-0
100
AcDbLine
 10
124.1981859451
 20
477.4048751237
 30
0.0
 11
87.6248850555
 21
477.4048751237
 31
0.0
  0
LINE
  5
179
330
16D
100
AcDbEntity
  8
SLD-0
100
AcDbLine
 10
98.1981859451
 20
302.4048751237
 30
0.0
 11
87.6248850555
 21
302.4048751237
 31
0.0
  0
LINE
  5
17A
330
16D
100
AcDbEntity
  8
SLD-0
100
AcDbLine
 10
88.6248850555
 20
477.4048751237
 30
0.0
 11
88.6248850555
 21
302.4048751237
 31
0.0
  0
MTEXT
  5
17B
330
16D
100
AcDbEntity
  8
SLD-0
100
AcDbMText
 10
80.7305357647
 20
373.2633592599
 30
0.0
 40
5.2916666667
 41
0.0
 71
     1
 72
     1
  1
175mm
  7
SLDTEXTSTYLE0
 11
-7.044195017643634E-15
 21
1.0
 31
0.0
 73
     1
 44
1.0
  0
MTEXT
  5
17C
330
16D
100
AcDbEntity
  8
SLD-0
100
AcDbMText
 10
80.7305357647
 20
401.4414841813
 30
0.0
 40
5.2916666667
 41
0.0
 71
     1
 72
     1
  1
6.89in
  7
SLDTEXTSTYLE0
 11
-7.044195017643634E-15
 21
1.0
 31
0.0
 73
     1
 44
1.0
  0
ENDBLK
  5
16F
330
16D
100
AcDbEntity
  8
0
100
AcDbBlockEnd
  0
BLOCK
  5
17F
330
17E
100
AcDbEntity
  8
0
100
AcDbBlockBegin
  2
_D_13
 70
     0
 10
0.0
 20
0.0
 30
0.0
  3
_D_13
  1

  0
SOLID
  5
181
330
17E
100
AcDbEntity
  8
SLD-0
100
AcDbTrace
 10
1491.6981859451
 20
107.5740832443
 30
0.0
 11
1485.3481859451
 21
108.5510063212
 31
0.0
 12
1485.3481859451
 22
106.5971601674
 32
0.0
 13
1485.3481859451
 23
106.5971601674
 33
0.0
  0
SOLID
  5
182
330
17E
100
AcDbEntity
  8
SLD-0
100
AcDbTrace
 10
1151.6981859451
 20
107.5740832443
 30
0.0
 11
1158.0481859451
 21
106.5971601674
 31
0.0
 12
1158.0481859451
 22
108.5510063212
 32
0.0
 13
1158.0481859451
 23
108.5510063212
 33
0.0
  0
LINE
  5
183
330
17E
100
AcDbEntity
  8
SLD-0
100
AcDbLine
 10
1333.5768033167
 20
118.951166382
 30
0.0
 11
1331.6453449543
 21
118.951166382
 31
0.0
  0
LINE
  5
184
330
17E
100
AcDbEntity
  8
SLD-0
100
AcDbLine
 10
1331.6453449543
 20
118.951166382
 30
0.0
 11
1331.6453449543
 21
108.8617223854
 31
0.0
  0
LINE
  5
185
330
17E
100
AcDbEntity
  8
SLD-0
100
AcDbLine
 10
1331.6453449543
 20
108.8617223854
 30
0.0
 11
1333.5768033167
 21
108.8617223854
 31
0.0
  0
LINE
  5
186
330
17E
100
AcDbEntity
  8
SLD-0
100
AcDbLine
 10
1361.540322413
 20
118.951166382
 30
0.0
 11
1363.4717807754
 21
118.951166382
 31
0.0
  0
LINE
  5
187
330
17E
100
AcDbEntity
  8
SLD-0
100
AcDbLine
 10
1363.4717807754
 20
118.951166382
 30
0.0
 11
1363.4717807754
 21
108.8617223854
 31
0.0
  0
LINE
  5
188
330
17E
100
AcDbEntity
  8
SLD-0
100
AcDbLine
 10
1363.4717807754
 20
108.8617223854
 30
0.0
 11
1361.540322413
 21
108.8617223854
 31
0.0
  0
LINE
  5
189
330
17E
100
AcDbEntity
  8
SLD-0
100
AcDbLine
 10
1491.6981859451
 20
119.9048751237
 30
0.0
 11
1491.6981859451
 21
106.5740832443
 31
0.0
  0
LINE
  5
18A
330
17E
100
AcDbEntity
  8
SLD-0
100
AcDbLine
 10
1151.6981859451
 20
146.4057551237
 30
0.0
 11
1151.6981859451
 21
106.5740832443
 31
0.0
  0
LINE
  5
18B
330
17E
100
AcDbEntity
  8
SLD-0
100
AcDbLine
 10
1491.6981859451
 20
107.5740832443
 30
0.0
 11
1151.6981859451
 21
107.5740832443
 31
0.0
  0
MTEXT
  5
18C
330
17E
100
AcDbEntity
  8
SLD-0
100
AcDbMText
 10
1299.7630517812
 20
117.0473016016
 30
0.0
 40
6.35
 41
0.0
 71
     1
 72
     1
  1
340mm
  7
SLDTEXTSTYLE0
 73
     1
 44
1.0
  0
MTEXT
  5
18D
330
17E
100
AcDbEntity
  8
SLD-0
100
AcDbMText
 10
1333.5768033167
 20
117.0473016016
 30
0.0
 40
6.35
 41
0.0
 71
     1
 72
     1
  1
13.39in
  7
SLDTEXTSTYLE0
 73
     1
 44
1.0
  0
ENDBLK
  5
180
330
17E
100
AcDbEntity
  8
0
100
AcDbBlockEnd
  0
BLOCK
  5
190
330
18F
100
AcDbEntity
  8
0
100
AcDbBlockBegin
  2
_D_14
 70
     0
 10
0.0
 20
0.0
 30
0.0
  3
_D_14
  1

  0
SOLID
  5
192
330
18F
100
AcDbEntity
  8
SLD-0
100
AcDbTrace
 10
1212.9826591458
 20
477.4048751237
 30
0.0
 11
1212.0057360689
 21
471.0548751237
 31
0.0
 12
1213.9595822227
 22
471.0548751237
 32
0.0
 13
1213.9595822227
 23
471.0548751237
 33
0.0
  0
SOLID
  5
193
330
18F
100
AcDbEntity
  8
SLD-0
100
AcDbTrace
 10
1212.9826591458
 20
457.4057551237
 30
0.0
 11
1213.9595822227
 21
463.7557551237
 31
0.0
 12
1212.0057360689
 22
463.7557551237
 32
0.0
 13
1212.0057360689
 23
463.7557551237
 33
0.0
  0
LINE
  5
194
330
18F
100
AcDbEntity
  8
SLD-0
100
AcDbLine
 10
1201.6055760082
 20
422.1197548467
 30
0.0
 11
1201.6055760082
 21
420.1882964843
 31
0.0
  0
LINE
  5
195
330
18F
100
AcDbEntity
  8
SLD-0
100
AcDbLine
 10
1201.6055760082
 20
420.1882964843
 30
0.0
 11
1211.6950200047
 21
420.1882964843
 31
0.0
  0
LINE
  5
196
330
18F
100
AcDbEntity
  8
SLD-0
100
AcDbLine
 10
1211.6950200047
 20
420.1882964843
 30
0.0
 11
1211.6950200047
 21
422.1197548467
 31
0.0
  0
LINE
  5
197
330
18F
100
AcDbEntity
  8
SLD-0
100
AcDbLine
 10
1201.6055760082
 20
445.3913285541
 30
0.0
 11
1201.6055760082
 21
447.3227869165
 31
0.0
  0
LINE
  5
198
330
18F
100
AcDbEntity
  8
SLD-0
100
AcDbLine
 10
1201.6055760082
 20
447.3227869165
 30
0.0
 11
1211.6950200047
 21
447.3227869165
 31
0.0
  0
LINE
  5
199
330
18F
100
AcDbEntity
  8
SLD-0
100
AcDbLine
 10
1211.6950200047
 20
447.3227869165
 30
0.0
 11
1211.6950200047
 21
445.3913285541
 31
0.0
  0
LINE
  5
19A
330
18F
100
AcDbEntity
  8
SLD-0
100
AcDbLine
 10
1060.6981859451
 20
477.4048751237
 30
0.0
 11
1213.9826591458
 21
477.4048751237
 31
0.0
  0
LINE
  5
19B
330
18F
100
AcDbEntity
  8
SLD-0
100
AcDbLine
 10
1152.6981859451
 20
457.4057551237
 30
0.0
 11
1213.9826591458
 21
457.4057551237
 31
0.0
  0
LINE
  5
19C
330
18F
100
AcDbEntity
  8
SLD-0
100
AcDbLine
 10
1212.9826591458
 20
477.4048751237
 30
0.0
 11
1212.9826591458
 21
457.4057551237
 31
0.0
  0
LINE
  5
19D
330
18F
100
AcDbEntity
  8
SLD-0
100
AcDbLine
 10
1212.9826591458
 20
457.4057551237
 30
0.0
 11
1212.9826591458
 21
392.9979487001
 31
0.0
  0
MTEXT
  5
19E
330
18F
100
AcDbEntity
  8
SLD-0
100
AcDbMText
 10
1203.5094407885
 20
392.9979487001
 30
0.0
 40
6.35
 41
0.0
 71
     1
 72
     1
  1
20mm
  7
SLDTEXTSTYLE0
 11
-1.059690869644414E-14
 21
1.0
 31
0.0
 73
     1
 44
1.0
  0
MTEXT
  5
19F
330
18F
100
AcDbEntity
  8
SLD-0
100
AcDbMText
 10
1203.5094407885
 20
422.1197548467
 30
0.0
 40
6.35
 41
0.0
 71
     1
 72
     1
  1
0.79in
  7
SLDTEXTSTYLE0
 11
-1.059690869644414E-14
 21
1.0
 31
0.0
 73
     1
 44
1.0
  0
ENDBLK
  5
191
330
18F
100
AcDbEntity
  8
0
100
AcDbBlockEnd
  0
BLOCK
  5
1A2
330
1A1
100
AcDbEntity
  8
0
100
AcDbBlockBegin
  2
_D_15
 70
     0
 10
0.0
 20
0.0
 30
0.0
  3
_D_15
  1

  0
SOLID
  5
1A4
330
1A1
100
AcDbEntity
  8
SLD-0
100
AcDbTrace
 10
726.6981859451
 20
107.5740832443
 30
0.0
 11
733.0481859451
 21
106.5971601674
 31
0.0
 12
733.0481859451
 22
108.5510063212
 32
0.0
 13
733.0481859451
 23
108.5510063212
 33
0.0
  0
SOLID
  5
1A5
330
1A1
100
AcDbEntity
  8
SLD-0
100
AcDbTrace
 10
991.6981859451
 20
107.5740832443
 30
0.0
 11
985.3481859451
 21
108.5510063212
 31
0.0
 12
985.3481859451
 22
106.5971601674
 32
0.0
 13
985.3481859451
 23
106.5971601674
 33
0.0
  0
LINE
  5
1A6
330
1A1
100
AcDbEntity
  8
SLD-0
100
AcDbLine
 10
871.1998391379
 20
118.951166382
 30
0.0
 11
869.2683807756
 21
118.951166382
 31
0.0
  0
LINE
  5
1A7
330
1A1
100
AcDbEntity
  8
SLD-0
100
AcDbLine
 10
869.2683807756
 20
118.951166382
 30
0.0
 11
869.2683807756
 21
108.8617223854
 31
0.0
  0
LINE
  5
1A8
330
1A1
100
AcDbEntity
  8
SLD-0
100
AcDbLine
 10
869.2683807756
 20
108.8617223854
 30
0.0
 11
871.1998391379
 21
108.8617223854
 31
0.0
  0
LINE
  5
1A9
330
1A1
100
AcDbEntity
  8
SLD-0
100
AcDbLine
 10
899.1633582343
 20
118.951166382
 30
0.0
 11
901.0948165967
 21
118.951166382
 31
0.0
  0
LINE
  5
1AA
330
1A1
100
AcDbEntity
  8
SLD-0
100
AcDbLine
 10
901.0948165967
 20
118.951166382
 30
0.0
 11
901.0948165967
 21
108.8617223854
 31
0.0
  0
LINE
  5
1AB
330
1A1
100
AcDbEntity
  8
SLD-0
100
AcDbLine
 10
901.0948165967
 20
108.8617223854
 30
0.0
 11
899.1633582343
 21
108.8617223854
 31
0.0
  0
LINE
  5
1AC
330
1A1
100
AcDbEntity
  8
SLD-0
100
AcDbLine
 10
726.6981859451
 20
138.9057551237
 30
0.0
 11
726.6981859451
 21
106.5740832443
 31
0.0
  0
LINE
  5
1AD
330
1A1
100
AcDbEntity
  8
SLD-0
100
AcDbLine
 10
991.6981859451
 20
146.4057551237
 30
0.0
 11
991.6981859451
 21
106.5740832443
 31
0.0
  0
LINE
  5
1AE
330
1A1
100
AcDbEntity
  8
SLD-0
100
AcDbLine
 10
726.6981859451
 20
107.5740832443
 30
0.0
 11
991.6981859451
 21
107.5740832443
 31
0.0
  0
MTEXT
  5
1AF
330
1A1
100
AcDbEntity
  8
SLD-0
100
AcDbMText
 10
837.3860876025
 20
117.0473016016
 30
0.0
 40
6.35
 41
0.0
 71
     1
 72
     1
  1
265mm
  7
SLDTEXTSTYLE0
 73
     1
 44
1.0
  0
MTEXT
  5
1B0
330
1A1
100
AcDbEntity
  8
SLD-0
100
AcDbMText
 10
871.1998391379
 20
117.0473016016
 30
0.0
 40
6.35
 41
0.0
 71
     1
 72
     1
  1
10.43in
  7
SLDTEXTSTYLE0
 73
     1
 44
1.0
  0
ENDBLK
  5
1A3
330
1A1
100
AcDbEntity
  8
0
100
AcDbBlockEnd
  0
BLOCK
  5
1B4
330
1B3
100
AcDbEntity
  8
0
100
AcDbBlockBegin
  2
_D_16
 70
     0
 10
0.0
 20
0.0
 30
0.0
  3
_D_16
  1

  0
SOLID
  5
1B6
330
1B3
100
AcDbEntity
  8
SLD-0
100
AcDbTrace
 10
942.247505601
 20
457.4057551237
 30
0.0
 11
941.2705825241
 21
451.0557551237
 31
0.0
 12
943.224428678
 22
451.0557551237
 32
0.0
 13
943.224428678
 23
451.0557551237
 33
0.0
  0
SOLID
  5
1B7
330
1B3
100
AcDbEntity
  8
SLD-0
100
AcDbTrace
 10
942.247505601
 20
464.9057551237
 30
0.0
 11
943.224428678
 21
471.2557551237
 31
0.0
 12
941.2705825241
 22
471.2557551237
 32
0.0
 13
941.2705825241
 23
471.2557551237
 33
0.0
  0
LINE
  5
1B8
330
1B3
100
AcDbEntity
  8
SLD-0
100
AcDbLine
 10
930.8704224634
 20
415.6691236785
 30
0.0
 11
930.8704224634
 21
413.7376653161
 31
0.0
  0
LINE
  5
1B9
330
1B3
100
AcDbEntity
  8
SLD-0
100
AcDbLine
 10
930.8704224634
 20
413.7376653161
 30
0.0
 11
940.95986646
 21
413.7376653161
 31
0.0
  0
LINE
  5
1BA
330
1B3
100
AcDbEntity
  8
SLD-0
100
AcDbLine
 10
940.95986646
 20
413.7376653161
 30
0.0
 11
940.95986646
 21
415.6691236785
 31
0.0
  0
LINE
  5
1BB
330
1B3
100
AcDbEntity
  8
SLD-0
100
AcDbLine
 10
930.8704224634
 20
438.940697386
 30
0.0
 11
930.8704224634
 21
440.8721557483
 31
0.0
  0
LINE
  5
1BC
330
1B3
100
AcDbEntity
  8
SLD-0
100
AcDbLine
 10
930.8704224634
 20
440.8721557483
 30
0.0
 11
940.95986646
 21
440.8721557483
 31
0.0
  0
LINE
  5
1BD
330
1B3
100
AcDbEntity
  8
SLD-0
100
AcDbLine
 10
940.95986646
 20
440.8721557483
 30
0.0
 11
940.95986646
 21
438.940697386
 31
0.0
  0
LINE
  5
1BE
330
1B3
100
AcDbEntity
  8
SLD-0
100
AcDbLine
 10
990.6981859451
 20
457.4057551237
 30
0.0
 11
941.247505601
 21
457.4057551237
 31
0.0
  0
LINE
  5
1BF
330
1B3
100
AcDbEntity
  8
SLD-0
100
AcDbLine
 10
727.6981859451
 20
464.9057551237
 30
0.0
 11
943.247505601
 21
464.9057551237
 31
0.0
  0
LINE
  5
1C0
330
1B3
100
AcDbEntity
  8
SLD-0
100
AcDbLine
 10
942.247505601
 20
457.4057551237
 30
0.0
 11
942.247505601
 21
379.515278888
 31
0.0
  0
LINE
  5
1C1
330
1B3
100
AcDbEntity
  8
SLD-0
100
AcDbLine
 10
942.247505601
 20
457.4057551237
 30
0.0
 11
942.247505601
 21
464.9057551237
 31
0.0
  0
LINE
  5
1C2
330
1B3
100
AcDbEntity
  8
SLD-0
100
AcDbLine
 10
942.247505601
 20
464.9057551237
 30
0.0
 11
942.247505601
 21
477.1172935852
 31
0.0
  0
MTEXT
  5
1C3
330
1B3
100
AcDbEntity
  8
SLD-0
100
AcDbMText
 10
932.7742872437
 20
379.515278888
 30
0.0
 40
6.35
 41
0.0
 71
     1
 72
     1
  1
7.50mm
  7
SLDTEXTSTYLE0
 11
-3.269436733918102E-15
 21
1.0
 31
0.0
 73
     1
 44
1.0
  0
MTEXT
  5
1C4
330
1B3
100
AcDbEntity
  8
SLD-0
100
AcDbMText
 10
932.7742872437
 20
415.6691236785
 30
0.0
 40
6.35
 41
0.0
 71
     1
 72
     1
  1
0.30in
  7
SLDTEXTSTYLE0
 11
-3.269436733918102E-15
 21
1.0
 31
0.0
 73
     1
 44
1.0
  0
ENDBLK
  5
1B5
330
1B3
100
AcDbEntity
  8
0
100
AcDbBlockEnd
  0
BLOCK
  5
1C8
330
1C7
100
AcDbEntity
  8
0
100
AcDbBlockBegin
  2
_NONE
 70
     0
 10
0.0
 20
0.0
 30
0.0
  3
_NONE
  1

  0
ENDBLK
  5
1C9
330
1C7
100
AcDbEntity
  8
0
100
AcDbBlockEnd
  0
BLOCK
  5
1CB
330
1CA
100
AcDbEntity
  8
0
100
AcDbBlockBegin
  2
_D_17
 70
     0
 10
0.0
 20
0.0
 30
0.0
  3
_D_17
  1

  0
SOLID
  5
1CD
330
1CA
100
AcDbEntity
  8
SLD-0
100
AcDbTrace
 10
349.6981859451
 20
473.9407735086
 30
0.0
 11
351.6389857767
 21
468.9510044648
 31
0.0
 12
353.0490527803
 22
469.7651070289
 32
0.0
 13
353.0490527803
 23
469.7651070289
 33
0.0
  0
LINE
  5
1CE
330
1CA
100
AcDbEntity
  8
SLD-0
100
AcDbLine
 10
423.9928230414
 20
432.7578185313
 30
0.0
 11
422.3832744643
 21
432.7578185313
 31
0.0
  0
LINE
  5
1CF
330
1CA
100
AcDbEntity
  8
SLD-0
100
AcDbLine
 10
422.3832744643
 20
432.7578185313
 30
0.0
 11
422.3832744643
 21
424.3499482237
 31
0.0
  0
LINE
  5
1D0
330
1CA
100
AcDbEntity
  8
SLD-0
100
AcDbLine
 10
422.3832744643
 20
424.3499482237
 30
0.0
 11
423.9928230414
 21
424.3499482237
 31
0.0
  0
LINE
  5
1D1
330
1CA
100
AcDbEntity
  8
SLD-0
100
AcDbLine
 10
443.3858014414
 20
432.7578185313
 30
0.0
 11
444.9953500185
 21
432.7578185313
 31
0.0
  0
LINE
  5
1D2
330
1CA
100
AcDbEntity
  8
SLD-0
100
AcDbLine
 10
444.9953500185
 20
432.7578185313
 30
0.0
 11
444.9953500185
 21
424.3499482237
 31
0.0
  0
LINE
  5
1D3
330
1CA
100
AcDbEntity
  8
SLD-0
100
AcDbLine
 10
444.9953500185
 20
424.3499482237
 30
0.0
 11
443.3858014414
 21
424.3499482237
 31
0.0
  0
LINE
  5
1D4
330
1CA
100
AcDbEntity
  8
SLD-0
100
AcDbLine
 10
349.6981859451
 20
473.9407735086
 30
0.0
 11
378.9489779433
 21
423.2769156061
 31
0.0
  0
LINE
  5
1D5
330
1CA
100
AcDbEntity
  8
SLD-0
100
AcDbLine
 10
345.6981859451
 20
480.8689767388
 30
0.0
 11
349.6981859451
 21
473.9407735086
 31
0.0
  0
LINE
  5
1D6
330
1CA
100
AcDbEntity
  8
SLD-0
100
AcDbLine
 10
378.9489779433
 20
423.2769156061
 30
0.0
 11
465.2825183471
 21
423.2769156061
 31
0.0
  0
MTEXT
  5
1D8
330
1CA
100
AcDbEntity
  8
SLD-0
100
AcDbMText
 10
380.5364779433
 20
431.1712648969
 30
0.0
 40
5.2916666667
 41
0.0
 71
     1
 72
     1
  1
15 x
  7
SLDTEXTSTYLE1
 73
     1
 44
1.0
  0
MTEXT
  5
1D9
330
1CA
100
AcDbEntity
  8
SLD-0
100
AcDbMText
 10
395.6471261805
 20
431.1712648969
 30
0.0
 40
5.2916666667
 41
0.0
 71
     1
 72
     1
  1
%%c
  7
SLDTEXTSTYLE0
 73
     1
 44
1.0
  0
MTEXT
  5
1DA
330
1CA
100
AcDbEntity
  8
SLD-0
100
AcDbMText
 10
403.6346039971
 20
431.1712648969
 30
0.0
 40
5.2916666667
 41
0.0
 71
     1
 72
     1
  1
8mm
  7
SLDTEXTSTYLE0
 73
     1
 44
1.0
  0
MTEXT
  5
1DB
330
1CA
100
AcDbEntity
  8
SLD-0
100
AcDbMText
 10
423.9928230414
 20
431.1712648969
 30
0.0
 40
5.2916666667
 41
0.0
 71
     1
 72
     1
  1
0.31in
  7
SLDTEXTSTYLE0
 73
     1
 44
1.0
  0
MTEXT
  5
1DC
330
1CA
100
AcDbEntity
  8
SLD-0
100
AcDbMText
 10
448.5892712673
 20
431.1712648969
 30
0.0
 40
5.2916666667
 41
0.0
 71
     1
 72
     1
  1
THRU
  7
SLDTEXTSTYLE0
 73
     1
 44
1.0
  0
ENDBLK
  5
1CC
330
1CA
100
AcDbEntity
  8
0
100
AcDbBlockEnd
  0
BLOCK
  5
1E3
330
1E2
100
AcDbEntity
  8
0
100
AcDbBlockBegin
  2
SW_CENTERMARKSYMBOL_0
 70
     0
 10
0.0
 20
0.0
 30
0.0
  3
SW_CENTERMARKSYMBOL_0
  1

  0
LINE
  5
1E5
330
1E2
100
AcDbEntity
  8
SLD-0
 62
     0
100
AcDbLine
 10
0.0
 20
0.0
 30
0.0
 11
-2.5
 21
0.0
 31
0.0
  0
LINE
  5
1E6
330
1E2
100
AcDbEntity
  8
SLD-0
 62
     0
100
AcDbLine
 10
0.0
 20
0.0
 30
0.0
 11
0.0
 21
-2.5
 31
0.0
  0
LINE
  5
1E7
330
1E2
100
AcDbEntity
  8
SLD-0
 62
     0
100
AcDbLine
 10
0.0
 20
0.0
 30
0.0
 11
2.5
 21
0.0
 31
0.0
  0
LINE
  5
1E8
330
1E2
100
AcDbEntity
  8
SLD-0
 62
     0
100
AcDbLine
 10
0.0
 20
0.0
 30
0.0
 11
0.0
 21
2.5
 31
0.0
  0
LINE
  5
1E9
330
1E2
100
AcDbEntity
  8
SLD-0
 62
     0
100
AcDbLine
 10
-5.0
 20
0.0
 30
0.0
 11
-6.5
 21
0.0
 31
0.0
  0
LINE
  5
1EA
330
1E2
100
AcDbEntity
  8
SLD-0
 62
     0
100
AcDbLine
 10
0.0
 20
-5.0
 30
0.0
 11
0.0
 21
-6.5
 31
0.0
  0
LINE
  5
1EB
330
1E2
100
AcDbEntity
  8
SLD-0
 62
     0
100
AcDbLine
 10
5.0
 20
0.0
 30
0.0
 11
6.5
 21
0.0
 31
0.0
  0
LINE
  5
1EC
330
1E2
100
AcDbEntity
  8
SLD-0
 62
     0
100
AcDbLine
 10
0.0
 20
5.0
 30
0.0
 11
0.0
 21
6.5
 31
0.0
  0
ENDBLK
  5
1E4
330
1E2
100
AcDbEntity
  8
0
100
AcDbBlockEnd
  0
BLOCK
  5
1EF
330
1EE
100
AcDbEntity
  8
0
100
AcDbBlockBegin
  2
SW_CENTERMARKSYMBOL_1
 70
     0
 10
0.0
 20
0.0
 30
0.0
  3
SW_CENTERMARKSYMBOL_1
  1

  0
LINE
  5
1F1
330
1EE
100
AcDbEntity
  8
SLD-0
 62
     0
100
AcDbLine
 10
0.0
 20
0.0
 30
0.0
 11
-2.5
 21
0.0
 31
0.0
  0
LINE
  5
1F2
330
1EE
100
AcDbEntity
  8
SLD-0
 62
     0
100
AcDbLine
 10
0.0
 20
0.0
 30
0.0
 11
0.0
 21
-2.5
 31
0.0
  0
LINE
  5
1F3
330
1EE
100
AcDbEntity
  8
SLD-0
 62
     0
100
AcDbLine
 10
0.0
 20
0.0
 30
0.0
 11
2.5
 21
0.0
 31
0.0
  0
LINE
  5
1F4
330
1EE
100
AcDbEntity
  8
SLD-0
 62
     0
100
AcDbLine
 10
0.0
 20
0.0
 30
0.0
 11
0.0
 21
2.5
 31
0.0
  0
LINE
  5
1F5
330
1EE
100
AcDbEntity
  8
SLD-0
 62
     0
100
AcDbLine
 10
-5.0
 20
0.0
 30
0.0
 11
-6.5
 21
0.0
 31
0.0
  0
LINE
  5
1F6
330
1EE
100
AcDbEntity
  8
SLD-0
 62
     0
100
AcDbLine
 10
0.0
 20
-5.0
 30
0.0
 11
0.0
 21
-6.5
 31
0.0
  0
LINE
  5
1F7
330
1EE
100
AcDbEntity
  8
SLD-0
 62
     0
100
AcDbLine
 10
5.0
 20
0.0
 30
0.0
 11
6.5
 21
0.0
 31
0.0
  0
LINE
  5
1F8
330
1EE
100
AcDbEntity
  8
SLD-0
 62
     0
100
AcDbLine
 10
0.0
 20
5.0
 30
0.0
 11
0.0
 21
6.5
 31
0.0
  0
ENDBLK
  5
1F0
330
1EE
100
AcDbEntity
  8
0
100
AcDbBlockEnd
  0
BLOCK
  5
1FB
330
1FA
100
AcDbEntity
  8
0
100
AcDbBlockBegin
  2
SW_CENTERMARKSYMBOL_2
 70
     0
 10
0.0
 20
0.0
 30
0.0
  3
SW_CENTERMARKSYMBOL_2
  1

  0
LINE
  5
1FD
330
1FA
100
AcDbEntity
  8
SLD-0
 62
     0
100
AcDbLine
 10
0.0
 20
0.0
 30
0.0
 11
-2.5
 21
0.0
 31
0.0
  0
LINE
  5
1FE
330
1FA
100
AcDbEntity
  8
SLD-0
 62
     0
100
AcDbLine
 10
0.0
 20
0.0
 30
0.0
 11
0.0
 21
-2.5
 31
0.0
  0
LINE
  5
1FF
330
1FA
100
AcDbEntity
  8
SLD-0
 62
     0
100
AcDbLine
 10
0.0
 20
0.0
 30
0.0
 11
2.5
 21
0.0
 31
0.0
  0
LINE
  5
200
330
1FA
100
AcDbEntity
  8
SLD-0
 62
     0
100
AcDbLine
 10
0.0
 20
0.0
 30
0.0
 11
0.0
 21
2.5
 31
0.0
  0
LINE
  5
201
330
1FA
100
AcDbEntity
  8
SLD-0
 62
     0
100
AcDbLine
 10
-5.0
 20
0.0
 30
0.0
 11
-6.5
 21
0.0
 31
0.0
  0
LINE
  5
202
330
1FA
100
AcDbEntity
  8
SLD-0
 62
     0
100
AcDbLine
 10
0.0
 20
-5.0
 30
0.0
 11
0.0
 21
-6.5
 31
0.0
  0
LINE
  5
203
330
1FA
100
AcDbEntity
  8
SLD-0
 62
     0
100
AcDbLine
 10
5.0
 20
0.0
 30
0.0
 11
6.5
 21
0.0
 31
0.0
  0
LINE
  5
204
330
1FA
100
AcDbEntity
  8
SLD-0
 62
     0
100
AcDbLine
 10
0.0
 20
5.0
 30
0.0
 11
0.0
 21
6.5
 31
0.0
  0
ENDBLK
  5
1FC
330
1FA
100
AcDbEntity
  8
0
100
AcDbBlockEnd
  0
BLOCK
  5
207
330
206
100
AcDbEntity
  8
0
100
AcDbBlockBegin
  2
SW_CENTERMARKSYMBOL_3
 70
     0
 10
0.0
 20
0.0
 30
0.0
  3
SW_CENTERMARKSYMBOL_3
  1

  0
LINE
  5
209
330
206
100
AcDbEntity
  8
SLD-0
 62
     0
100
AcDbLine
 10
0.0
 20
0.0
 30
0.0
 11
-2.5
 21
0.0
 31
0.0
  0
LINE
  5
20A
330
206
100
AcDbEntity
  8
SLD-0
 62
     0
100
AcDbLine
 10
0.0
 20
0.0
 30
0.0
 11
0.0
 21
-2.5
 31
0.0
  0
LINE
  5
20B
330
206
100
AcDbEntity
  8
SLD-0
 62
     0
100
AcDbLine
 10
0.0
 20
0.0
 30
0.0
 11
2.5
 21
0.0
 31
0.0
  0
LINE
  5
20C
330
206
100
AcDbEntity
  8
SLD-0
 62
     0
100
AcDbLine
 10
0.0
 20
0.0
 30
0.0
 11
0.0
 21
2.5
 31
0.0
  0
LINE
  5
20D
330
206
100
AcDbEntity
  8
SLD-0
 62
     0
100
AcDbLine
 10
-5.0
 20
0.0
 30
0.0
 11
-6.5
 21
0.0
 31
0.0
  0
LINE
  5
20E
330
206
100
AcDbEntity
  8
SLD-0
 62
     0
100
AcDbLine
 10
0.0
 20
-5.0
 30
0.0
 11
0.0
 21
-6.5
 31
0.0
  0
LINE
  5
20F
330
206
100
AcDbEntity
  8
SLD-0
 62
     0
100
AcDbLine
 10
5.0
 20
0.0
 30
0.0
 11
6.5
 21
0.0
 31
0.0
  0
LINE
  5
210
330
206
100
AcDbEntity
  8
SLD-0
 62
     0
100
AcDbLine
 10
0.0
 20
5.0
 30
0.0
 11
0.0
 21
6.5
 31
0.0
  0
ENDBLK
  5
208
330
206
100
AcDbEntity
  8
0
100
AcDbBlockEnd
  0
BLOCK
  5
213
330
212
100
AcDbEntity
  8
0
100
AcDbBlockBegin
  2
SW_CENTERMARKSYMBOL_4
 70
     0
 10
0.0
 20
0.0
 30
0.0
  3
SW_CENTERMARKSYMBOL_4
  1

  0
LINE
  5
215
330
212
100
AcDbEntity
  8
SLD-0
 62
     0
100
AcDbLine
 10
0.0
 20
0.0
 30
0.0
 11
-2.5
 21
0.0
 31
0.0
  0
LINE
  5
216
330
212
100
AcDbEntity
  8
SLD-0
 62
     0
100
AcDbLine
 10
0.0
 20
0.0
 30
0.0
 11
0.0
 21
-2.5
 31
0.0
  0
LINE
  5
217
330
212
100
AcDbEntity
  8
SLD-0
 62
     0
100
AcDbLine
 10
0.0
 20
0.0
 30
0.0
 11
2.5
 21
0.0
 31
0.0
  0
LINE
  5
218
330
212
100
AcDbEntity
  8
SLD-0
 62
     0
100
AcDbLine
 10
0.0
 20
0.0
 30
0.0
 11
0.0
 21
2.5
 31
0.0
  0
LINE
  5
219
330
212
100
AcDbEntity
  8
SLD-0
 62
     0
100
AcDbLine
 10
-5.0
 20
0.0
 30
0.0
 11
-6.5
 21
0.0
 31
0.0
  0
LINE
  5
21A
330
212
100
AcDbEntity
  8
SLD-0
 62
     0
100
AcDbLine
 10
0.0
 20
-5.0
 30
0.0
 11
0.0
 21
-6.5
 31
0.0
  0
LINE
  5
21B
330
212
100
AcDbEntity
  8
SLD-0
 62
     0
100
AcDbLine
 10
5.0
 20
0.0
 30
0.0
 11
6.5
 21
0.0
 31
0.0
  0
LINE
  5
21C
330
212
100
AcDbEntity
  8
SLD-0
 62
     0
100
AcDbLine
 10
0.0
 20
5.0
 30
0.0
 11
0.0
 21
6.5
 31
0.0
  0
ENDBLK
  5
214
330
212
100
AcDbEntity
  8
0
100
AcDbBlockEnd
  0
BLOCK
  5
21F
330
21E
100
AcDbEntity
  8
0
100
AcDbBlockBegin
  2
SW_CENTERMARKSYMBOL_5
 70
     0
 10
0.0
 20
0.0
 30
0.0
  3
SW_CENTERMARKSYMBOL_5
  1

  0
LINE
  5
221
330
21E
100
AcDbEntity
  8
SLD-0
 62
     0
100
AcDbLine
 10
0.0
 20
0.0
 30
0.0
 11
-2.5
 21
0.0
 31
0.0
  0
LINE
  5
222
330
21E
100
AcDbEntity
  8
SLD-0
 62
     0
100
AcDbLine
 10
0.0
 20
0.0
 30
0.0
 11
0.0
 21
-2.5
 31
0.0
  0
LINE
  5
223
330
21E
100
AcDbEntity
  8
SLD-0
 62
     0
100
AcDbLine
 10
0.0
 20
0.0
 30
0.0
 11
2.5
 21
0.0
 31
0.0
  0
LINE
  5
224
330
21E
100
AcDbEntity
  8
SLD-0
 62
     0
100
AcDbLine
 10
0.0
 20
0.0
 30
0.0
 11
0.0
 21
2.5
 31
0.0
  0
LINE
  5
225
330
21E
100
AcDbEntity
  8
SLD-0
 62
     0
100
AcDbLine
 10
-5.0
 20
0.0
 30
0.0
 11
-6.5
 21
0.0
 31
0.0
  0
LINE
  5
226
330
21E
100
AcDbEntity
  8
SLD-0
 62
     0
100
AcDbLine
 10
0.0
 20
-5.0
 30
0.0
 11
0.0
 21
-6.5
 31
0.0
  0
LINE
  5
227
330
21E
100
AcDbEntity
  8
SLD-0
 62
     0
100
AcDbLine
 10
5.0
 20
0.0
 30
0.0
 11
6.5
 21
0.0
 31
0.0
  0
LINE
  5
228
330
21E
100
AcDbEntity
  8
SLD-0
 62
     0
100
AcDbLine
 10
0.0
 20
5.0
 30
0.0
 11
0.0
 21
6.5
 31
0.0
  0
ENDBLK
  5
220
330
21E
100
AcDbEntity
  8
0
100
AcDbBlockEnd
  0
BLOCK
  5
22B
330
22A
100
AcDbEntity
  8
0
100
AcDbBlockBegin
  2
SW_CENTERMARKSYMBOL_6
 70
     0
 10
0.0
 20
0.0
 30
0.0
  3
SW_CENTERMARKSYMBOL_6
  1

  0
LINE
  5
22D
330
22A
100
AcDbEntity
  8
SLD-0
 62
     0
100
AcDbLine
 10
0.0
 20
0.0
 30
0.0
 11
-2.5
 21
0.0
 31
0.0
  0
LINE
  5
22E
330
22A
100
AcDbEntity
  8
SLD-0
 62
     0
100
AcDbLine
 10
0.0
 20
0.0
 30
0.0
 11
0.0
 21
-2.5
 31
0.0
  0
LINE
  5
22F
330
22A
100
AcDbEntity
  8
SLD-0
 62
     0
100
AcDbLine
 10
0.0
 20
0.0
 30
0.0
 11
2.5
 21
0.0
 31
0.0
  0
LINE
  5
230
330
22A
100
AcDbEntity
  8
SLD-0
 62
     0
100
AcDbLine
 10
0.0
 20
0.0
 30
0.0
 11
0.0
 21
2.5
 31
0.0
  0
LINE
  5
231
330
22A
100
AcDbEntity
  8
SLD-0
 62
     0
100
AcDbLine
 10
-5.0
 20
0.0
 30
0.0
 11
-6.5
 21
0.0
 31
0.0
  0
LINE
  5
232
330
22A
100
AcDbEntity
  8
SLD-0
 62
     0
100
AcDbLine
 10
0.0
 20
-5.0
 30
0.0
 11
0.0
 21
-6.5
 31
0.0
  0
LINE
  5
233
330
22A
100
AcDbEntity
  8
SLD-0
 62
     0
100
AcDbLine
 10
5.0
 20
0.0
 30
0.0
 11
6.5
 21
0.0
 31
0.0
  0
LINE
  5
234
330
22A
100
AcDbEntity
  8
SLD-0
 62
     0
100
AcDbLine
 10
0.0
 20
5.0
 30
0.0
 11
0.0
 21
6.5
 31
0.0
  0
ENDBLK
  5
22C
330
22A
100
AcDbEntity
  8
0
100
AcDbBlockEnd
  0
BLOCK
  5
237
330
236
100
AcDbEntity
  8
0
100
AcDbBlockBegin
  2
SW_CENTERMARKSYMBOL_7
 70
     0
 10
0.0
 20
0.0
 30
0.0
  3
SW_CENTERMARKSYMBOL_7
  1

  0
LINE
  5
239
330
236
100
AcDbEntity
  8
SLD-0
 62
     0
100
AcDbLine
 10
0.0
 20
0.0
 30
0.0
 11
-2.5
 21
0.0
 31
0.0
  0
LINE
  5
23A
330
236
100
AcDbEntity
  8
SLD-0
 62
     0
100
AcDbLine
 10
0.0
 20
0.0
 30
0.0
 11
0.0
 21
-2.5
 31
0.0
  0
LINE
  5
23B
330
236
100
AcDbEntity
  8
SLD-0
 62
     0
100
AcDbLine
 10
0.0
 20
0.0
 30
0.0
 11
2.5
 21
0.0
 31
0.0
  0
LINE
  5
23C
330
236
100
AcDbEntity
  8
SLD-0
 62
     0
100
AcDbLine
 10
0.0
 20
0.0
 30
0.0
 11
0.0
 21
2.5
 31
0.0
  0
LINE
  5
23D
330
236
100
AcDbEntity
  8
SLD-0
 62
     0
100
AcDbLine
 10
-5.0
 20
0.0
 30
0.0
 11
-6.5
 21
0.0
 31
0.0
  0
LINE
  5
23E
330
236
100
AcDbEntity
  8
SLD-0
 62
     0
100
AcDbLine
 10
0.0
 20
-5.0
 30
0.0
 11
0.0
 21
-6.5
 31
0.0
  0
LINE
  5
23F
330
236
100
AcDbEntity
  8
SLD-0
 62
     0
100
AcDbLine
 10
5.0
 20
0.0
 30
0.0
 11
6.5
 21
0.0
 31
0.0
  0
LINE
  5
240
330
236
100
AcDbEntity
  8
SLD-0
 62
     0
100
AcDbLine
 10
0.0
 20
5.0
 30
0.0
 11
0.0
 21
6.5
 31
0.0
  0
ENDBLK
  5
238
330
236
100
AcDbEntity
  8
0
100
AcDbBlockEnd
  0
BLOCK
  5
243
330
242
100
AcDbEntity
  8
0
100
AcDbBlockBegin
  2
SW_CENTERMARKSYMBOL_8
 70
     0
 10
0.0
 20
0.0
 30
0.0
  3
SW_CENTERMARKSYMBOL_8
  1

  0
LINE
  5
245
330
242
100
AcDbEntity
  8
SLD-0
 62
     0
100
AcDbLine
 10
0.0
 20
0.0
 30
0.0
 11
-2.5
 21
0.0
 31
0.0
  0
LINE
  5
246
330
242
100
AcDbEntity
  8
SLD-0
 62
     0
100
AcDbLine
 10
0.0
 20
0.0
 30
0.0
 11
0.0
 21
-2.5
 31
0.0
  0
LINE
  5
247
330
242
100
AcDbEntity
  8
SLD-0
 62
     0
100
AcDbLine
 10
0.0
 20
0.0
 30
0.0
 11
2.5
 21
0.0
 31
0.0
  0
LINE
  5
248
330
242
100
AcDbEntity
  8
SLD-0
 62
     0
100
AcDbLine
 10
0.0
 20
0.0
 30
0.0
 11
0.0
 21
2.5
 31
0.0
  0
LINE
  5
249
330
242
100
AcDbEntity
  8
SLD-0
 62
     0
100
AcDbLine
 10
-5.0
 20
0.0
 30
0.0
 11
-6.5
 21
0.0
 31
0.0
  0
LINE
  5
24A
330
242
100
AcDbEntity
  8
SLD-0
 62
     0
100
AcDbLine
 10
0.0
 20
-5.0
 30
0.0
 11
0.0
 21
-6.5
 31
0.0
  0
LINE
  5
24B
330
242
100
AcDbEntity
  8
SLD-0
 62
     0
100
AcDbLine
 10
5.0
 20
0.0
 30
0.0
 11
6.5
 21
0.0
 31
0.0
  0
LINE
  5
24C
330
242
100
AcDbEntity
  8
SLD-0
 62
     0
100
AcDbLine
 10
0.0
 20
5.0
 30
0.0
 11
0.0
 21
6.5
 31
0.0
  0
ENDBLK
  5
244
330
242
100
AcDbEntity
  8
0
100
AcDbBlockEnd
  0
BLOCK
  5
24F
330
24E
100
AcDbEntity
  8
0
100
AcDbBlockBegin
  2
SW_CENTERMARKSYMBOL_9
 70
     0
 10
0.0
 20
0.0
 30
0.0
  3
SW_CENTERMARKSYMBOL_9
  1

  0
LINE
  5
251
330
24E
100
AcDbEntity
  8
SLD-0
 62
     0
100
AcDbLine
 10
0.0
 20
0.0
 30
0.0
 11
-2.5
 21
0.0
 31
0.0
  0
LINE
  5
252
330
24E
100
AcDbEntity
  8
SLD-0
 62
     0
100
AcDbLine
 10
0.0
 20
0.0
 30
0.0
 11
0.0
 21
-2.5
 31
0.0
  0
LINE
  5
253
330
24E
100
AcDbEntity
  8
SLD-0
 62
     0
100
AcDbLine
 10
0.0
 20
0.0
 30
0.0
 11
2.5
 21
0.0
 31
0.0
  0
LINE
  5
254
330
24E
100
AcDbEntity
  8
SLD-0
 62
     0
100
AcDbLine
 10
0.0
 20
0.0
 30
0.0
 11
0.0
 21
2.5
 31
0.0
  0
LINE
  5
255
330
24E
100
AcDbEntity
  8
SLD-0
 62
     0
100
AcDbLine
 10
-5.0
 20
0.0
 30
0.0
 11
-6.5
 21
0.0
 31
0.0
  0
LINE
  5
256
330
24E
100
AcDbEntity
  8
SLD-0
 62
     0
100
AcDbLine
 10
0.0
 20
-5.0
 30
0.0
 11
0.0
 21
-6.5
 31
0.0
  0
LINE
  5
257
330
24E
100
AcDbEntity
  8
SLD-0
 62
     0
100
AcDbLine
 10
5.0
 20
0.0
 30
0.0
 11
6.5
 21
0.0
 31
0.0
  0
LINE
  5
258
330
24E
100
AcDbEntity
  8
SLD-0
 62
     0
100
AcDbLine
 10
0.0
 20
5.0
 30
0.0
 11
0.0
 21
6.5
 31
0.0
  0
ENDBLK
  5
250
330
24E
100
AcDbEntity
  8
0
100
AcDbBlockEnd
  0
BLOCK
  5
25B
330
25A
100
AcDbEntity
  8
0
100
AcDbBlockBegin
  2
SW_CENTERMARKSYMBOL_10
 70
     0
 10
0.0
 20
0.0
 30
0.0
  3
SW_CENTERMARKSYMBOL_10
  1

  0
LINE
  5
25D
330
25A
100
AcDbEntity
  8
SLD-0
 62
     0
100
AcDbLine
 10
0.0
 20
0.0
 30
0.0
 11
-2.5
 21
0.0
 31
0.0
  0
LINE
  5
25E
330
25A
100
AcDbEntity
  8
SLD-0
 62
     0
100
AcDbLine
 10
0.0
 20
0.0
 30
0.0
 11
0.0
 21
-2.5
 31
0.0
  0
LINE
  5
25F
330
25A
100
AcDbEntity
  8
SLD-0
 62
     0
100
AcDbLine
 10
0.0
 20
0.0
 30
0.0
 11
2.5
 21
0.0
 31
0.0
  0
LINE
  5
260
330
25A
100
AcDbEntity
  8
SLD-0
 62
     0
100
AcDbLine
 10
0.0
 20
0.0
 30
0.0
 11
0.0
 21
2.5
 31
0.0
  0
LINE
  5
261
330
25A
100
AcDbEntity
  8
SLD-0
 62
     0
100
AcDbLine
 10
-5.0
 20
0.0
 30
0.0
 11
-6.5
 21
0.0
 31
0.0
  0
LINE
  5
262
330
25A
100
AcDbEntity
  8
SLD-0
 62
     0
100
AcDbLine
 10
0.0
 20
-5.0
 30
0.0
 11
0.0
 21
-6.5
 31
0.0
  0
LINE
  5
263
330
25A
100
AcDbEntity
  8
SLD-0
 62
     0
100
AcDbLine
 10
5.0
 20
0.0
 30
0.0
 11
6.5
 21
0.0
 31
0.0
  0
LINE
  5
264
330
25A
100
AcDbEntity
  8
SLD-0
 62
     0
100
AcDbLine
 10
0.0
 20
5.0
 30
0.0
 11
0.0
 21
6.5
 31
0.0
  0
ENDBLK
  5
25C
330
25A
100
AcDbEntity
  8
0
100
AcDbBlockEnd
  0
BLOCK
  5
267
330
266
100
AcDbEntity
  8
0
100
AcDbBlockBegin
  2
SW_CENTERMARKSYMBOL_11
 70
     0
 10
0.0
 20
0.0
 30
0.0
  3
SW_CENTERMARKSYMBOL_11
  1

  0
LINE
  5
269
330
266
100
AcDbEntity
  8
SLD-0
 62
     0
100
AcDbLine
 10
0.0
 20
0.0
 30
0.0
 11
-2.5
 21
0.0
 31
0.0
  0
LINE
  5
26A
330
266
100
AcDbEntity
  8
SLD-0
 62
     0
100
AcDbLine
 10
0.0
 20
0.0
 30
0.0
 11
0.0
 21
-2.5
 31
0.0
  0
LINE
  5
26B
330
266
100
AcDbEntity
  8
SLD-0
 62
     0
100
AcDbLine
 10
0.0
 20
0.0
 30
0.0
 11
2.5
 21
0.0
 31
0.0
  0
LINE
  5
26C
330
266
100
AcDbEntity
  8
SLD-0
 62
     0
100
AcDbLine
 10
0.0
 20
0.0
 30
0.0
 11
0.0
 21
2.5
 31
0.0
  0
LINE
  5
26D
330
266
100
AcDbEntity
  8
SLD-0
 62
     0
100
AcDbLine
 10
-5.0
 20
0.0
 30
0.0
 11
-6.5
 21
0.0
 31
0.0
  0
LINE
  5
26E
330
266
100
AcDbEntity
  8
SLD-0
 62
     0
100
AcDbLine
 10
0.0
 20
-5.0
 30
0.0
 11
0.0
 21
-6.5
 31
0.0
  0
LINE
  5
26F
330
266
100
AcDbEntity
  8
SLD-0
 62
     0
100
AcDbLine
 10
5.0
 20
0.0
 30
0.0
 11
6.5
 21
0.0
 31
0.0
  0
LINE
  5
270
330
266
100
AcDbEntity
  8
SLD-0
 62
     0
100
AcDbLine
 10
0.0
 20
5.0
 30
0.0
 11
0.0
 21
6.5
 31
0.0
  0
ENDBLK
  5
268
330
266
100
AcDbEntity
  8
0
100
AcDbBlockEnd
  0
BLOCK
  5
273
330
272
100
AcDbEntity
  8
0
100
AcDbBlockBegin
  2
SW_CENTERMARKSYMBOL_12
 70
     0
 10
0.0
 20
0.0
 30
0.0
  3
SW_CENTERMARKSYMBOL_12
  1

  0
LINE
  5
275
330
272
100
AcDbEntity
  8
SLD-0
 62
     0
100
AcDbLine
 10
0.0
 20
0.0
 30
0.0
 11
-2.5
 21
0.0
 31
0.0
  0
LINE
  5
276
330
272
100
AcDbEntity
  8
SLD-0
 62
     0
100
AcDbLine
 10
0.0
 20
0.0
 30
0.0
 11
0.0
 21
-2.5
 31
0.0
  0
LINE
  5
277
330
272
100
AcDbEntity
  8
SLD-0
 62
     0
100
AcDbLine
 10
0.0
 20
0.0
 30
0.0
 11
2.5
 21
0.0
 31
0.0
  0
LINE
  5
278
330
272
100
AcDbEntity
  8
SLD-0
 62
     0
100
AcDbLine
 10
0.0
 20
0.0
 30
0.0
 11
0.0
 21
2.5
 31
0.0
  0
LINE
  5
279
330
272
100
AcDbEntity
  8
SLD-0
 62
     0
100
AcDbLine
 10
-5.0
 20
0.0
 30
0.0
 11
-6.5
 21
0.0
 31
0.0
  0
LINE
  5
27A
330
272
100
AcDbEntity
  8
SLD-0
 62
     0
100
AcDbLine
 10
0.0
 20
-5.0
 30
0.0
 11
0.0
 21
-6.5
 31
0.0
  0
LINE
  5
27B
330
272
100
AcDbEntity
  8
SLD-0
 62
     0
100
AcDbLine
 10
5.0
 20
0.0
 30
0.0
 11
6.5
 21
0.0
 31
0.0
  0
LINE
  5
27C
330
272
100
AcDbEntity
  8
SLD-0
 62
     0
100
AcDbLine
 10
0.0
 20
5.0
 30
0.0
 11
0.0
 21
6.5
 31
0.0
  0
ENDBLK
  5
274
330
272
100
AcDbEntity
  8
0
100
AcDbBlockEnd
  0
BLOCK
  5
27F
330
27E
100
AcDbEntity
  8
0
100
AcDbBlockBegin
  2
SW_CENTERMARKSYMBOL_13
 70
     0
 10
0.0
 20
0.0
 30
0.0
  3
SW_CENTERMARKSYMBOL_13
  1

  0
LINE
  5
281
330
27E
100
AcDbEntity
  8
SLD-0
 62
     0
100
AcDbLine
 10
0.0
 20
0.0
 30
0.0
 11
-2.5
 21
0.0
 31
0.0
  0
LINE
  5
282
330
27E
100
AcDbEntity
  8
SLD-0
 62
     0
100
AcDbLine
 10
0.0
 20
0.0
 30
0.0
 11
0.0
 21
-2.5
 31
0.0
  0
LINE
  5
283
330
27E
100
AcDbEntity
  8
SLD-0
 62
     0
100
AcDbLine
 10
0.0
 20
0.0
 30
0.0
 11
2.5
 21
0.0
 31
0.0
  0
LINE
  5
284
330
27E
100
AcDbEntity
  8
SLD-0
 62
     0
100
AcDbLine
 10
0.0
 20
0.0
 30
0.0
 11
0.0
 21
2.5
 31
0.0
  0
LINE
  5
285
330
27E
100
AcDbEntity
  8
SLD-0
 62
     0
100
AcDbLine
 10
-5.0
 20
0.0
 30
0.0
 11
-6.5
 21
0.0
 31
0.0
  0
LINE
  5
286
330
27E
100
AcDbEntity
  8
SLD-0
 62
     0
100
AcDbLine
 10
0.0
 20
-5.0
 30
0.0
 11
0.0
 21
-6.5
 31
0.0
  0
LINE
  5
287
330
27E
100
AcDbEntity
  8
SLD-0
 62
     0
100
AcDbLine
 10
5.0
 20
0.0
 30
0.0
 11
6.5
 21
0.0
 31
0.0
  0
LINE
  5
288
330
27E
100
AcDbEntity
  8
SLD-0
 62
     0
100
AcDbLine
 10
0.0
 20
5.0
 30
0.0
 11
0.0
 21
6.5
 31
0.0
  0
ENDBLK
  5
280
330
27E
100
AcDbEntity
  8
0
100
AcDbBlockEnd
  0
BLOCK
  5
28B
330
28A
100
AcDbEntity
  8
0
100
AcDbBlockBegin
  2
SW_CENTERMARKSYMBOL_14
 70
     0
 10
0.0
 20
0.0
 30
0.0
  3
SW_CENTERMARKSYMBOL_14
  1

  0
LINE
  5
28D
330
28A
100
AcDbEntity
  8
SLD-0
 62
     0
100
AcDbLine
 10
0.0
 20
0.0
 30
0.0
 11
-2.5
 21
0.0
 31
0.0
  0
LINE
  5
28E
330
28A
100
AcDbEntity
  8
SLD-0
 62
     0
100
AcDbLine
 10
0.0
 20
0.0
 30
0.0
 11
0.0
 21
-2.5
 31
0.0
  0
LINE
  5
28F
330
28A
100
AcDbEntity
  8
SLD-0
 62
     0
100
AcDbLine
 10
0.0
 20
0.0
 30
0.0
 11
2.5
 21
0.0
 31
0.0
  0
LINE
  5
290
330
28A
100
AcDbEntity
  8
SLD-0
 62
     0
100
AcDbLine
 10
0.0
 20
0.0
 30
0.0
 11
0.0
 21
2.5
 31
0.0
  0
LINE
  5
291
330
28A
100
AcDbEntity
  8
SLD-0
 62
     0
100
AcDbLine
 10
-5.0
 20
0.0
 30
0.0
 11
-6.5
 21
0.0
 31
0.0
  0
LINE
  5
292
330
28A
100
AcDbEntity
  8
SLD-0
 62
     0
100
AcDbLine
 10
0.0
 20
-5.0
 30
0.0
 11
0.0
 21
-6.5
 31
0.0
  0
LINE
  5
293
330
28A
100
AcDbEntity
  8
SLD-0
 62
     0
100
AcDbLine
 10
5.0
 20
0.0
 30
0.0
 11
6.5
 21
0.0
 31
0.0
  0
LINE
  5
294
330
28A
100
AcDbEntity
  8
SLD-0
 62
     0
100
AcDbLine
 10
0.0
 20
5.0
 30
0.0
 11
0.0
 21
6.5
 31
0.0
  0
ENDBLK
  5
28C
330
28A
100
AcDbEntity
  8
0
100
AcDbBlockEnd
  0
ENDSEC
  0
SECTION
  2
ENTITIES
  0
CIRCLE
  5
76
330
1F
100
AcDbEntity
  8
0
  6
Continuous
 62
     7
370
    25
100
AcDbCircle
 10
131.6981859451
 20
127.4048751237
 30
0.0
 40
4.0
  0
CIRCLE
  5
77
330
1F
100
AcDbEntity
  8
0
  6
Continuous
 62
     7
370
    25
100
AcDbCircle
 10
105.6981859451
 20
302.4048751237
 30
0.0
 40
4.0
  0
CIRCLE
  5
78
330
1F
100
AcDbEntity
  8
0
  6
Continuous
 62
     7
370
    25
100
AcDbCircle
 10
131.6981859451
 20
477.4048751237
 30
0.0
 40
4.0
  0
CIRCLE
  5
79
330
1F
100
AcDbEntity
  8
0
  6
Continuous
 62
     7
370
    25
100
AcDbCircle
 10
347.6981859451
 20
477.4048751237
 30
0.0
 40
4.000000000000057
  0
CIRCLE
  5
7A
330
1F
100
AcDbEntity
  8
0
  6
Continuous
 62
     7
370
    25
100
AcDbCircle
 10
347.6981859451
 20
127.4048751237
 30
0.0
 40
4.0
  0
CIRCLE
  5
7B
330
1F
100
AcDbEntity
  8
0
  6
Continuous
 62
     7
370
    25
100
AcDbCircle
 10
563.6981859451
 20
127.4048751237
 30
0.0
 40
4.0
  0
CIRCLE
  5
7C
330
1F
100
AcDbEntity
  8
0
  6
Continuous
 62
     7
370
    25
100
AcDbCircle
 10
563.6981859451
 20
477.4048751237
 30
0.0
 40
4.000000000000057
  0
CIRCLE
  5
7D
330
1F
100
AcDbEntity
  8
0
  6
Continuous
 62
     7
370
    25
100
AcDbCircle
 10
843.6981859451
 20
477.4048751237
 30
0.0
 40
4.000000000000057
  0
CIRCLE
  5
7E
330
1F
100
AcDbEntity
  8
0
  6
Continuous
 62
     7
370
    25
100
AcDbCircle
 10
843.6981859451
 20
127.4048751237
 30
0.0
 40
4.000000000000014
  0
CIRCLE
  5
7F
330
1F
100
AcDbEntity
  8
0
  6
Continuous
 62
     7
370
    25
100
AcDbCircle
 10
1059.6981859451
 20
127.4048751237
 30
0.0
 40
4.000000000000014
  0
CIRCLE
  5
80
330
1F
100
AcDbEntity
  8
0
  6
Continuous
 62
     7
370
    25
100
AcDbCircle
 10
1059.6981859451
 20
477.4048751237
 30
0.0
 40
4.000000000000057
  0
CIRCLE
  5
81
330
1F
100
AcDbEntity
  8
0
  6
Continuous
 62
     7
370
    25
100
AcDbCircle
 10
1275.6981859451
 20
477.4048751237
 30
0.0
 40
4.0
  0
CIRCLE
  5
82
330
1F
100
AcDbEntity
  8
0
  6
Continuous
 62
     7
370
    25
100
AcDbCircle
 10
1491.6981859451
 20
127.4048751237
 30
0.0
 40
4.000000000000014
  0
CIRCLE
  5
83
330
1F
100
AcDbEntity
  8
0
  6
Continuous
 62
     7
370
    25
100
AcDbCircle
 10
1491.6981859451
 20
477.4048751237
 30
0.0
 40
4.0
  0
LINE
  5
84
330
1F
100
AcDbEntity
  8
0
  6
Continuous
 62
     7
370
    25
100
AcDbLine
 10
726.6981874791
 20
464.9057491632
 30
0.0
 11
726.6981874791
 21
139.9057610842
 31
0.0
  0
LINE
  5
85
330
1F
100
AcDbEntity
  8
0
  6
Continuous
 62
     7
370
    25
100
AcDbLine
 10
116.698173174
 20
464.9057491632
 30
0.0
 11
726.6981874791
 21
464.9057491632
 31
0.0
  0
LINE
  5
86
330
1F
100
AcDbEntity
  8
0
  6
Continuous
 62
     7
370
    25
100
AcDbLine
 10
116.698173174
 20
139.9057610842
 30
0.0
 11
116.698173174
 21
464.9057491632
 31
0.0
  0
LINE
  5
87
330
1F
100
AcDbEntity
  8
0
  6
Continuous
 62
     7
370
    25
100
AcDbLine
 10
726.6981874791
 20
139.9057610842
 30
0.0
 11
116.698173174
 21
139.9057610842
 31
0.0
  0
LINE
  5
88
330
1F
100
AcDbEntity
  8
0
  6
Continuous
 62
     7
370
    25
100
AcDbLine
 10
1151.6981994
 20
457.4057563158
 30
0.0
 11
1151.6981994
 21
147.4057539316
 31
0.0
  0
LINE
  5
89
330
1F
100
AcDbEntity
  8
0
  6
Continuous
 62
     7
370
    25
100
AcDbLine
 10
991.6981880751
 20
457.4057563158
 30
0.0
 11
1151.6981994
 21
457.4057563158
 31
0.0
  0
LINE
  5
8A
330
1F
100
AcDbEntity
  8
0
  6
Continuous
 62
     7
370
    25
100
AcDbLine
 10
991.6981880751
 20
147.4057539316
 30
0.0
 11
991.6981880751
 21
457.4057563158
 31
0.0
  0
LINE
  5
8B
330
1F
100
AcDbEntity
  8
0
  6
Continuous
 62
     7
370
    25
100
AcDbLine
 10
1151.6981994
 20
147.4057539316
 30
0.0
 11
991.6981880751
 21
147.4057539316
 31
0.0
  0
LINE
  5
8C
330
1F
100
AcDbEntity
  8
0
  6
Continuous
 62
     7
370
    25
100
AcDbLine
 10
69.8087488499
 20
514.9057610842
 30
0.0
 11
69.8087488499
 21
89.9057491632
 31
0.0
  0
LINE
  5
8D
330
1F
100
AcDbEntity
  8
0
  6
Continuous
 62
     7
370
    25
100
AcDbLine
 10
1509.8087464657
 20
514.9057610842
 30
0.0
 11
69.8087488499
 21
514.9057610842
 31
0.0
  0
LINE
  5
8E
330
1F
100
AcDbEntity
  8
0
  6
Continuous
 62
     7
370
    25
100
AcDbLine
 10
69.8087488499
 20
89.9057491632
 30
0.0
 11
1509.8087464657
 21
89.9057491632
 31
0.0
  0
CIRCLE
  5
8F
330
1F
100
AcDbEntity
  8
0
  6
Continuous
 62
     7
370
    25
100
AcDbCircle
 10
1275.6981859451
 20
127.4048751237
 30
0.0
 40
4.000000000000014
  0
LINE
  5
90
330
1F
100
AcDbEntity
  8
0
  6
Continuous
 62
     7
370
    25
100
AcDbLine
 10
1509.8087464657
 20
514.9057610842
 30
0.0
 11
1509.8087464657
 21
89.9057491632
 31
0.0
  0
LINE
  5
91
330
1F
100
AcDbEntity
  8
SLD-0
100
AcDbLine
 10
44.4087242451
 20
540.3057551237
 30
0.0
 11
1535.2087242451
 21
540.3057551237
 31
0.0
  0
LINE
  5
92
330
1F
100
AcDbEntity
  8
SLD-0
100
AcDbLine
 10
1535.2087242451
 20
540.3057551237
 30
0.0
 11
1535.2087242451
 21
64.5057551237
 31
0.0
  0
LINE
  5
93
330
1F
100
AcDbEntity
  8
SLD-0
100
AcDbLine
 10
1535.2087242451
 20
64.5057551237
 30
0.0
 11
44.4087242451
 21
64.5057551237
 31
0.0
  0
LINE
  5
94
330
1F
100
AcDbEntity
  8
SLD-0
100
AcDbLine
 10
44.4087242451
 20
64.5057551237
 30
0.0
 11
44.4087242451
 21
540.3057551237
 31
0.0
  0
DIMENSION
  5
95
330
1F
100
AcDbEntity
  8
SLD-0
100
AcDbDimension
  2
_D
 10
726.6981859451
 20
107.5740832443
 30
0.0
 11
401.2771316442
 21
107.5740832443
 31
0.0
 70
   160
  1
<>
 71
     2
 42
-1.0
  3
SLDDIMSTYLE0
100
AcDbAlignedDimension
 13
116.6981859451
 23
139.9057551237
 33
0.0
 14
726.6981859451
 24
139.9057551237
 34
0.0
 50
0.0
100
AcDbRotatedDimension
  0
DIMENSION
  5
A8
330
1F
100
AcDbEntity
  8
SLD-0
100
AcDbDimension
  2
_D_1
 10
757.4783540081
 20
139.9057551237
 30
0.0
 11
757.4783540081
 21
305.6329445053
 31
0.0
 70
   160
  1
<>
 71
     2
 42
-1.0
  3
SLDDIMSTYLE0
100
AcDbAlignedDimension
 13
726.6981859451
 23
464.9057551237
 33
0.0
 14
726.6981859451
 24
139.9057551237
 34
0.0
 50
90.0
100
AcDbRotatedDimension
  0
DIMENSION
  5
B9
330
1F
100
AcDbEntity
  8
SLD-0
100
AcDbDimension
  2
_D_2
 10
1180.753694846
 20
457.4057551237
 30
0.0
 11
1180.753694846
 21
305.235751966
 31
0.0
 70
   160
  1
<>
 71
     2
 42
-1.0
  3
SLDDIMSTYLE0
100
AcDbAlignedDimension
 13
1151.6981859451
 23
147.4057551237
 33
0.0
 14
1151.6981859451
 24
457.4057551237
 34
0.0
 50
90.0
100
AcDbRotatedDimension
  0
DIMENSION
  5
CA
330
1F
100
AcDbEntity
  8
SLD-0
100
AcDbDimension
  2
_D_3
 10
1151.6981859451
 20
107.5740832443
 30
0.0
 11
1082.247494611
 21
107.5740832443
 31
0.0
 70
   160
  1
<>
 71
     2
 42
-1.0
  3
SLDDIMSTYLE0
100
AcDbAlignedDimension
 13
991.6981859451
 23
147.4057551237
 33
0.0
 14
1151.6981859451
 24
147.4057551237
 34
0.0
 50
0.0
100
AcDbRotatedDimension
  0
DIMENSION
  5
DB
330
1F
100
AcDbEntity
  8
SLD-0
100
AcDbDimension
  2
_D_4
 10
1468.7140561065
 20
477.4048751237
 30
0.0
 11
1468.7140561065
 21
296.8394772398
 31
0.0
 70
   160
  1
<> TYP.
 71
     2
 42
-1.0
  3
SLDDIMSTYLE0
100
AcDbAlignedDimension
 13
1485.1981859451
 23
127.4048751237
 33
0.0
 14
1485.1981859451
 24
477.4048751237
 34
0.0
 50
90.0
100
AcDbRotatedDimension
  0
DIMENSION
  5
ED
330
1F
100
AcDbEntity
  8
SLD-0
100
AcDbDimension
  2
_D_5
 10
1491.6981859451
 20
495.6837328935
 30
0.0
 11
1390.5073220482
 21
495.6837328935
 31
0.0
 70
   160
  1
<> TYP.
 71
     2
 42
-1.0
  3
SLDDIMSTYLE0
100
AcDbAlignedDimension
 13
1275.6981859451
 23
483.9048751237
 33
0.0
 14
1491.6981859451
 24
483.9048751237
 34
0.0
 50
0.0
100
AcDbRotatedDimension
  0
DIMENSION
  5
FF
330
1F
100
AcDbEntity
  8
SLD-0
100
AcDbDimension
  2
_D_6
 10
1275.6981859451
 20
495.6837328935
 30
0.0
 11
1157.9611738307
 21
495.6837328935
 31
0.0
 70
   160
  1
<> TYP.
 71
     2
 42
-1.0
  3
SLDDIMSTYLE0
100
AcDbAlignedDimension
 13
1059.6981859451
 23
483.9048751237
 33
0.0
 14
1275.6981859451
 24
483.9048751237
 34
0.0
 50
0.0
100
AcDbRotatedDimension
  0
DIMENSION
  5
111
330
1F
100
AcDbEntity
  8
SLD-0
100
AcDbDimension
  2
_D_7
 10
1059.6981859451
 20
495.6837328935
 30
0.0
 11
942.247505601
 21
495.6837328935
 31
0.0
 70
   160
  1
<> TYP.
 71
     2
 42
-1.0
  3
SLDDIMSTYLE0
100
AcDbAlignedDimension
 13
843.6981859451
 23
483.9048751237
 33
0.0
 14
1059.6981859451
 24
483.9048751237
 34
0.0
 50
0.0
100
AcDbRotatedDimension
  0
DIMENSION
  5
123
330
1F
100
AcDbEntity
  8
SLD-0
100
AcDbDimension
  2
_D_8
 10
843.6981859451
 20
495.6837328935
 30
0.0
 11
692.9744223233
 21
495.6837328935
 31
0.0
 70
   160
  1
<> TYP.
 71
     2
 42
-1.0
  3
SLDDIMSTYLE0
100
AcDbAlignedDimension
 13
563.6981859451
 23
483.9048751237
 33
0.0
 14
843.6981859451
 24
483.9048751237
 34
0.0
 50
0.0
100
AcDbRotatedDimension
  0
DIMENSION
  5
135
330
1F
100
AcDbEntity
  8
SLD-0
100
AcDbDimension
  2
_D_9
 10
563.6981859451
 20
495.6837328935
 30
0.0
 11
442.4797959195
 21
495.6837328935
 31
0.0
 70
   160
  1
<> TYP.
 71
     2
 42
-1.0
  3
SLDDIMSTYLE0
100
AcDbAlignedDimension
 13
347.6981859451
 23
483.9048751237
 33
0.0
 14
563.6981859451
 24
483.9048751237
 34
0.0
 50
0.0
100
AcDbRotatedDimension
  0
DIMENSION
  5
147
330
1F
100
AcDbEntity
  8
SLD-0
100
AcDbDimension
  2
_D_10
 10
347.6981859451
 20
495.6837328935
 30
0.0
 11
227.896686456
 21
495.6837328935
 31
0.0
 70
   160
  1
<> TYP.
 71
     2
 42
-1.0
  3
SLDDIMSTYLE0
100
AcDbAlignedDimension
 13
131.6981859451
 23
483.9048751237
 33
0.0
 14
347.6981859451
 24
483.9048751237
 34
0.0
 50
0.0
100
AcDbRotatedDimension
  0
DIMENSION
  5
159
330
1F
100
AcDbEntity
  8
SLD-0
100
AcDbDimension
  2
_D_11
 10
131.6981859451
 20
449.3501169467
 30
0.0
 11
193.0976361098
 21
449.3501169467
 31
0.0
 70
   160
  1
<>
 71
     2
 42
-1.0
  3
SLDDIMSTYLE0
100
AcDbAlignedDimension
 13
105.6981859451
 23
308.9048751237
 33
0.0
 14
131.6981859451
 24
470.9048751237
 34
0.0
100
AcDbRotatedDimension
  0
DIMENSION
  5
16B
330
1F
100
AcDbEntity
  8
SLD-0
100
AcDbDimension
  2
_D_12
 10
88.6248850555
 20
302.4048751237
 30
0.0
 11
88.6248850555
 21
398.6584583335
 31
0.0
 70
   160
  1
<>
 71
     2
 42
-1.0
  3
SLDDIMSTYLE1
100
AcDbAlignedDimension
 13
125.1981859451
 23
477.4048751237
 33
0.0
 14
99.1981859451
 24
302.4048751237
 34
0.0
 50
90.0
100
AcDbRotatedDimension
  0
DIMENSION
  5
17D
330
1F
100
AcDbEntity
  8
SLD-0
100
AcDbDimension
  2
_D_13
 10
1151.6981859451
 20
107.5740832443
 30
0.0
 11
1332.583146158
 21
107.5740832443
 31
0.0
 70
   160
  1
<>
 71
     2
 42
-1.0
  3
SLDDIMSTYLE0
100
AcDbAlignedDimension
 13
1491.6981859451
 23
120.9048751237
 33
0.0
 14
1151.6981859451
 24
147.4057551237
 34
0.0
 50
0.0
100
AcDbRotatedDimension
  0
DIMENSION
  5
18E
330
1F
100
AcDbEntity
  8
SLD-0
100
AcDbDimension
  2
_D_14
 10
1212.9826591458
 20
457.4057551237
 30
0.0
 11
1212.9826591458
 21
421.1260958253
 31
0.0
 70
   160
  1
<>
 71
     2
 42
-1.0
  3
SLDDIMSTYLE0
100
AcDbAlignedDimension
 13
1059.6981859451
 23
477.4048751237
 33
0.0
 14
1151.6981859451
 24
457.4057551237
 34
0.0
 50
90.0
100
AcDbRotatedDimension
  0
DIMENSION
  5
1A0
330
1F
100
AcDbEntity
  8
SLD-0
100
AcDbDimension
  2
_D_15
 10
991.6981859451
 20
107.5740832443
 30
0.0
 11
870.2061819793
 21
107.5740832443
 31
0.0
 70
   160
  1
<>
 71
     2
 42
-1.0
  3
SLDDIMSTYLE0
100
AcDbAlignedDimension
 13
726.6981859451
 23
139.9057551237
 33
0.0
 14
991.6981859451
 24
147.4057551237
 34
0.0
 50
0.0
100
AcDbRotatedDimension
  0
DIMENSION
  5
1B1
330
1F
100
AcDbEntity
  8
SLD-0
100
AcDbDimension
  2
_D_16
 10
942.247505601
 20
464.9057551237
 30
0.0
 11
942.247505601
 21
411.1594444039
 31
0.0
 70
   160
  1
<>
 71
     2
 42
-1.0
  3
SLDDIMSTYLE2
100
AcDbAlignedDimension
 13
991.6981859451
 23
457.4057551237
 33
0.0
 14
726.6981859451
 24
464.9057551237
 34
0.0
 50
90.0
100
AcDbRotatedDimension
  0
DIMENSION
  5
1C5
330
1F
100
AcDbEntity
  8
SLD-0
100
AcDbDimension
  2
_D_17
 10
345.6981859451
 20
480.8689767388
 30
0.0
 11
422.9094981452
 21
428.5538833775
 31
0.0
 70
   163
  1
15 x <> THRU
 71
     1
 42
-1.0
  3
SLDDIMSTYLE3
100
AcDbDiametricDimension
 15
349.6981859451
 25
473.9407735086
 35
0.0
 40
0.0
  0
MTEXT
  5
1DD
330
1F
100
AcDbEntity
  8
SLD-0
100
AcDbMText
 10
385.7554398786
 20
280.0769346308
 30
0.0
 40
12.7
 41
0.0
 71
     1
 72
     1
  1
CUT OUT
  7
SLDTEXTSTYLE0
 11
0.7071067811865464
 21
0.7071067811865488
 31
0.0
 73
     1
 44
1.0
  0
MTEXT
  5
1DE
330
1F
100
AcDbEntity
  8
SLD-0
100
AcDbMText
 10
1041.3085555816
 20
272.3554609476
 30
0.0
 40
12.7
 41
0.0
 71
     1
 72
     1
  1
CUT OUT
  7
SLDTEXTSTYLE0
 11
0.7071067811865464
 21
0.7071067811865488
 31
0.0
 73
     1
 44
1.0
  0
MTEXT
  5
1DF
330
1F
100
AcDbEntity
  8
SLD-0
100
AcDbMText
 10
779.0558341528
 20
332.4414954355
 30
0.0
 40
9.525
 41
0.0
 71
     1
 72
     1
  1
Drilling Template DTS 34/36x1
  7
SLDTEXTSTYLE0
 73
     1
 44
1.0
  0
MTEXT
  5
1E0
330
1F
100
AcDbEntity
  8
SLD-0
100
AcDbMText
 10
880.7701609797
 20
299.4623544075
 30
0.0
 40
9.525
 41
0.0
 71
     1
 72
     1
  1
REV_00-_
  7
SLDTEXTSTYLE0
 73
     1
 44
1.0
  0
MTEXT
  5
1E1
330
1F
100
AcDbEntity
  8
SLD-0
100
AcDbMText
 10
782.6742976206
 20
299.4623544075
 30
0.0
 40
9.525
 41
0.0
 71
     1
 72
     1
  1
18380000032
  7
SLDTEXTSTYLE0
 73
     1
 44
1.0
  0
INSERT
  5
1ED
330
1F
100
AcDbEntity
  8
SLD-0
100
AcDbBlockReference
  2
SW_CENTERMARKSYMBOL_0
 10
131.6981859451
 20
127.4048751237
 30
0.0
  0
INSERT
  5
1F9
330
1F
100
AcDbEntity
  8
SLD-0
100
AcDbBlockReference
  2
SW_CENTERMARKSYMBOL_1
 10
105.6981859451
 20
302.4048751237
 30
0.0
  0
INSERT
  5
205
330
1F
100
AcDbEntity
  8
SLD-0
100
AcDbBlockReference
  2
SW_CENTERMARKSYMBOL_2
 10
131.6981859451
 20
477.4048751237
 30
0.0
  0
INSERT
  5
211
330
1F
100
AcDbEntity
  8
SLD-0
100
AcDbBlockReference
  2
SW_CENTERMARKSYMBOL_3
 10
347.6981859451
 20
477.4048751237
 30
0.0
  0
INSERT
  5
21D
330
1F
100
AcDbEntity
  8
SLD-0
100
AcDbBlockReference
  2
SW_CENTERMARKSYMBOL_4
 10
347.6981859451
 20
127.4048751237
 30
0.0
  0
INSERT
  5
229
330
1F
100
AcDbEntity
  8
SLD-0
100
AcDbBlockReference
  2
SW_CENTERMARKSYMBOL_5
 10
563.6981859451
 20
127.4048751237
 30
0.0
  0
INSERT
  5
235
330
1F
100
AcDbEntity
  8
SLD-0
100
AcDbBlockReference
  2
SW_CENTERMARKSYMBOL_6
 10
563.6981859451
 20
477.4048751237
 30
0.0
  0
INSERT
  5
241
330
1F
100
AcDbEntity
  8
SLD-0
100
AcDbBlockReference
  2
SW_CENTERMARKSYMBOL_7
 10
843.6981859451
 20
477.4048751237
 30
0.0
  0
INSERT
  5
24D
330
1F
100
AcDbEntity
  8
SLD-0
100
AcDbBlockReference
  2
SW_CENTERMARKSYMBOL_8
 10
843.6981859451
 20
127.4048751237
 30
0.0
  0
INSERT
  5
259
330
1F
100
AcDbEntity
  8
SLD-0
100
AcDbBlockReference
  2
SW_CENTERMARKSYMBOL_9
 10
1059.6981859451
 20
127.4048751237
 30
0.0
  0
INSERT
  5
265
330
1F
100
AcDbEntity
  8
SLD-0
100
AcDbBlockReference
  2
SW_CENTERMARKSYMBOL_10
 10
1059.6981859451
 20
477.4048751237
 30
0.0
  0
INSERT
  5
271
330
1F
100
AcDbEntity
  8
SLD-0
100
AcDbBlockReference
  2
SW_CENTERMARKSYMBOL_11
 10
1275.6981859451
 20
477.4048751237
 30
0.0
  0
INSERT
  5
27D
330
1F
100
AcDbEntity
  8
SLD-0
100
AcDbBlockReference
  2
SW_CENTERMARKSYMBOL_12
 10
1275.6981859451
 20
127.4048751237
 30
0.0
  0
INSERT
  5
289
330
1F
100
AcDbEntity
  8
SLD-0
100
AcDbBlockReference
  2
SW_CENTERMARKSYMBOL_13
 10
1491.6981859451
 20
127.4048751237
 30
0.0
  0
INSERT
  5
295
330
1F
100
AcDbEntity
  8
SLD-0
100
AcDbBlockReference
  2
SW_CENTERMARKSYMBOL_14
 10
1491.6981859451
 20
477.4048751237
 30
0.0
  0
ENDSEC
  0
SECTION
  2
OBJECTS
  0
DICTIONARY
  5
C
330
0
100
AcDbDictionary
281
     1
  3
ACAD_GROUP
350
D
  3
ACAD_LAYOUT
350
1A
  3
ACAD_MLINESTYLE
350
17
  3
ACAD_PLOTSETTINGS
350
19
  3
ACAD_PLOTSTYLENAME
350
E
  3
ACAD_SCALELIST
350
47
  0
DICTIONARY
  5
D
102
{ACAD_REACTORS
330
C
102
}
330
C
100
AcDbDictionary
281
     1
  0
DICTIONARY
  5
1A
102
{ACAD_REACTORS
330
C
102
}
330
C
100
AcDbDictionary
281
     1
  3
Layout1
350
1E
  3
Layout2
350
26
  3
Model
350
22
  0
DICTIONARY
  5
17
102
{ACAD_REACTORS
330
C
102
}
330
C
100
AcDbDictionary
281
     1
  3
Standard
350
18
  0
DICTIONARY
  5
19
102
{ACAD_REACTORS
330
C
102
}
330
C
100
AcDbDictionary
281
     1
  0
ACDBDICTIONARYWDFLT
  5
E
102
{ACAD_REACTORS
330
C
102
}
330
C
100
AcDbDictionary
281
     1
  3
Normal
350
F
100
AcDbDictionaryWithDefault
340
F
  0
DICTIONARY
  5
47
102
{ACAD_REACTORS
330
C
102
}
330
C
100
AcDbDictionary
281
     1
  3
A0
350
48
  3
A1
350
49
  3
A2
350
4A
  3
A3
350
4B
  3
A4
350
4C
  3
A5
350
4D
  3
A6
350
4E
  3
A7
350
4F
  3
A8
350
50
  3
A9
350
51
  3
B0
350
52
  3
B1
350
53
  3
B2
350
54
  3
B3
350
55
  3
B4
350
56
  3
B5
350
57
  3
B6
350
58
  3
B7
350
59
  3
B8
350
5A
  3
B9
350
5B
  3
C0
350
5C
  3
C1
350
5D
  3
C2
350
5E
  3
C3
350
5F
  3
C4
350
60
  3
C5
350
61
  3
C6
350
62
  3
C7
350
63
  3
C8
350
64
  3
C9
350
65
  3
D0
350
66
  3
D1
350
67
  3
D2
350
68
  0
LAYOUT
  5
1E
102
{ACAD_REACTORS
330
1A
102
}
330
1A
100
AcDbPlotSettings
  1

  2
none_device
  4

  6

 40
0.0
 41
0.0
 42
0.0
 43
0.0
 44
0.0
 45
0.0
 46
0.0
 47
0.0
 48
0.0
 49
0.0
140
0.0
141
0.0
142
1.0
143
1.0
 70
   688
 72
     1
 73
     0
 74
     5
  7

 75
    16
147
1.0
148
0.0
149
0.0
100
AcDbLayout
  1
Layout1
 70
     1
 71
     1
 10
0.0
 20
0.0
 11
420.0
 21
297.0
 12
0.0
 22
0.0
 32
0.0
 14
1.0000000000E+20
 24
1.0000000000E+20
 34
1.0000000000E+20
 15
-1.0000000000E+20
 25
-1.0000000000E+20
 35
-1.0000000000E+20
146
0.0
 13
0.0
 23
0.0
 33
0.0
 16
1.0
 26
0.0
 36
0.0
 17
0.0
 27
1.0
 37
0.0
 76
     0
330
1B
  0
LAYOUT
  5
26
102
{ACAD_REACTORS
330
1A
102
}
330
1A
100
AcDbPlotSettings
  1

  2
none_device
  4

  6

 40
0.0
 41
0.0
 42
0.0
 43
0.0
 44
0.0
 45
0.0
 46
0.0
 47
0.0
 48
0.0
 49
0.0
140
0.0
141
0.0
142
1.0
143
1.0
 70
   688
 72
     1
 73
     0
 74
     5
  7

 75
    16
147
1.0
148
0.0
149
0.0
100
AcDbLayout
  1
Layout2
 70
     1
 71
     2
 10
0.0
 20
0.0
 11
0.0
 21
0.0
 12
0.0
 22
0.0
 32
0.0
 14
0.0
 24
0.0
 34
0.0
 15
0.0
 25
0.0
 35
0.0
146
0.0
 13
0.0
 23
0.0
 33
0.0
 16
1.0
 26
0.0
 36
0.0
 17
0.0
 27
1.0
 37
0.0
 76
     0
330
23
  0
LAYOUT
  5
22
102
{ACAD_REACTORS
330
1A
102
}
330
1A
100
AcDbPlotSettings
  1

  2
none_device
  4
Letter_(8.50_x_11.00_Inches)
  6

 40
6.35
 41
6.35
 42
6.35000508
 43
6.35000508
 44
215.9
 45
279.4
 46
0.0
 47
0.0
 48
0.0
 49
0.0
140
0.0
141
0.0
142
1.0
143
1.0
 70
  1712
 72
     1
 73
     0
 74
     0
  7

 75
     0
147
1.0
148
0.0
149
0.0
100
AcDbLayout
  1
Model
 70
     1
 71
     0
 10
0.0
 20
0.0
 11
1600.0
 21
600.0
 12
0.0
 22
0.0
 32
0.0
 14
0.0
 24
0.0
 34
0.0
 15
1600.0
 25
600.0
 35
0.0
146
0.0
 13
0.0
 23
0.0
 33
0.0
 16
1.0
 26
0.0
 36
0.0
 17
0.0
 27
1.0
 37
0.0
 76
     0
330
1F
331
29
  0
MLINESTYLE
  5
18
102
{ACAD_REACTORS
330
17
102
}
330
17
100
AcDbMlineStyle
  2
Standard
 70
     0
  3

 62
   256
 51
90.0
 52
90.0
 71
     2
 49
0.5
 62
   256
  6
BYLAYER
 49
-0.5
 62
   256
  6
BYLAYER
  0
ACDBPLACEHOLDER
  5
F
102
{ACAD_REACTORS
330
E
102
}
330
E
  0
SCALE
  5
48
102
{ACAD_REACTORS
330
47
102
}
330
47
100
AcDbScale
 70
     0
300
1:1
140
1.0
141
1.0
290
     1
  0
SCALE
  5
49
102
{ACAD_REACTORS
330
47
102
}
330
47
100
AcDbScale
 70
     0
300
1:2
140
1.0
141
2.0
290
     0
  0
SCALE
  5
4A
102
{ACAD_REACTORS
330
47
102
}
330
47
100
AcDbScale
 70
     0
300
1:4
140
1.0
141
4.0
290
     0
  0
SCALE
  5
4B
102
{ACAD_REACTORS
330
47
102
}
330
47
100
AcDbScale
 70
     0
300
1:5
140
1.0
141
5.0
290
     0
  0
SCALE
  5
4C
102
{ACAD_REACTORS
330
47
102
}
330
47
100
AcDbScale
 70
     0
300
1:8
140
1.0
141
8.0
290
     0
  0
SCALE
  5
4D
102
{ACAD_REACTORS
330
47
102
}
330
47
100
AcDbScale
 70
     0
300
1:10
140
1.0
141
10.0
290
     0
  0
SCALE
  5
4E
102
{ACAD_REACTORS
330
47
102
}
330
47
100
AcDbScale
 70
     0
300
1:16
140
1.0
141
16.0
290
     0
  0
SCALE
  5
4F
102
{ACAD_REACTORS
330
47
102
}
330
47
100
AcDbScale
 70
     0
300
1:20
140
1.0
141
20.0
290
     0
  0
SCALE
  5
50
102
{ACAD_REACTORS
330
47
102
}
330
47
100
AcDbScale
 70
     0
300
1:30
140
1.0
141
30.0
290
     0
  0
SCALE
  5
51
102
{ACAD_REACTORS
330
47
102
}
330
47
100
AcDbScale
 70
     0
300
1:40
140
1.0
141
40.0
290
     0
  0
SCALE
  5
52
102
{ACAD_REACTORS
330
47
102
}
330
47
100
AcDbScale
 70
     0
300
1:50
140
1.0
141
50.0
290
     0
  0
SCALE
  5
53
102
{ACAD_REACTORS
330
47
102
}
330
47
100
AcDbScale
 70
     0
300
1:100
140
1.0
141
100.0
290
     0
  0
SCALE
  5
54
102
{ACAD_REACTORS
330
47
102
}
330
47
100
AcDbScale
 70
     0
300
2:1
140
2.0
141
1.0
290
     0
  0
SCALE
  5
55
102
{ACAD_REACTORS
330
47
102
}
330
47
100
AcDbScale
 70
     0
300
4:1
140
4.0
141
1.0
290
     0
  0
SCALE
  5
56
102
{ACAD_REACTORS
330
47
102
}
330
47
100
AcDbScale
 70
     0
300
8:1
140
8.0
141
1.0
290
     0
  0
SCALE
  5
57
102
{ACAD_REACTORS
330
47
102
}
330
47
100
AcDbScale
 70
     0
300
10:1
140
10.0
141
1.0
290
     0
  0
SCALE
  5
58
102
{ACAD_REACTORS
330
47
102
}
330
47
100
AcDbScale
 70
     0
300
100:1
140
100.0
141
1.0
290
     0
  0
SCALE
  5
59
102
{ACAD_REACTORS
330
47
102
}
330
47
100
AcDbScale
 70
     0
300
1/128" = 1'-0"
140
0.0078125
141
12.0
290
     0
  0
SCALE
  5
5A
102
{ACAD_REACTORS
330
47
102
}
330
47
100
AcDbScale
 70
     0
300
1/64" = 1'-0"
140
0.015625
141
12.0
290
     0
  0
SCALE
  5
5B
102
{ACAD_REACTORS
330
47
102
}
330
47
100
AcDbScale
 70
     0
300
1/32" = 1'-0"
140
0.03125
141
12.0
290
     0
  0
SCALE
  5
5C
102
{ACAD_REACTORS
330
47
102
}
330
47
100
AcDbScale
 70
     0
300
1/16" = 1'-0"
140
0.0625
141
12.0
290
     0
  0
SCALE
  5
5D
102
{ACAD_REACTORS
330
47
102
}
330
47
100
AcDbScale
 70
     0
300
3/32" = 1'-0"
140
0.09375
141
12.0
290
     0
  0
SCALE
  5
5E
102
{ACAD_REACTORS
330
47
102
}
330
47
100
AcDbScale
 70
     0
300
1/8" = 1'-0"
140
0.125
141
12.0
290
     0
  0
SCALE
  5
5F
102
{ACAD_REACTORS
330
47
102
}
330
47
100
AcDbScale
 70
     0
300
3/16" = 1'-0"
140
0.1875
141
12.0
290
     0
  0
SCALE
  5
60
102
{ACAD_REACTORS
330
47
102
}
330
47
100
AcDbScale
 70
     0
300
1/4" = 1'-0"
140
0.25
141
12.0
290
     0
  0
SCALE
  5
61
102
{ACAD_REACTORS
330
47
102
}
330
47
100
AcDbScale
 70
     0
300
3/8" = 1'-0"
140
0.375
141
12.0
290
     0
  0
SCALE
  5
62
102
{ACAD_REACTORS
330
47
102
}
330
47
100
AcDbScale
 70
     0
300
1/2" = 1'-0"
140
0.5
141
12.0
290
     0
  0
SCALE
  5
63
102
{ACAD_REACTORS
330
47
102
}
330
47
100
AcDbScale
 70
     0
300
3/4" = 1'-0"
140
0.75
141
12.0
290
     0
  0
SCALE
  5
64
102
{ACAD_REACTORS
330
47
102
}
330
47
100
AcDbScale
 70
     0
300
1" = 1'-0"
140
1.0
141
12.0
290
     0
  0
SCALE
  5
65
102
{ACAD_REACTORS
330
47
102
}
330
47
100
AcDbScale
 70
     0
300
1-1/2" = 1'-0"
140
1.5
141
12.0
290
     0
  0
SCALE
  5
66
102
{ACAD_REACTORS
330
47
102
}
330
47
100
AcDbScale
 70
     0
300
3" = 1'-0"
140
3.0
141
12.0
290
     0
  0
SCALE
  5
67
102
{ACAD_REACTORS
330
47
102
}
330
47
100
AcDbScale
 70
     0
300
6" = 1'-0"
140
6.0
141
12.0
290
     0
  0
SCALE
  5
68
102
{ACAD_REACTORS
330
47
102
}
330
47
100
AcDbScale
 70
     0
300
1'-0" = 1'-0"
140
12.0
141
12.0
290
     0
  0
ENDSEC
  0
EOF
